Смерть пришла из космоса / День, когда небеса взорвались / The Day the Sky Exploded / La morte viene dallo spazio (Паоло Хёш) [1958 г., Фильм-катастрофа, фантастика, драма, DVDRip-AVC] ЛО (Трамвай-фильм)

Reply to topic
 
Author Message

admin ®

Gender: Male

Longevity: 7 years 2 months

Posts: 4723

Post 01-Oct-2012 02:54

[Quote]

Смерть пришла из космоса / День, когда небеса взорвались / The Day the Sky Exploded / La morte viene dallo spazio
Год выпуска: 1958
Страна: Италия, Франция, США
Жанр: Фильм-катастрофа, фантастика, драма
Продолжительность: 01:19:57
Перевод: Любительский (одноголосый) Трамвай-фильм
Режиссер: Паоло Хёш
В ролях: Пол Хабшмид, Фьёрелла Мари, Иво Гаррани, Дарио Михайлес, Жан-Жак Дэльбо
Описание: Американская версия итальянского фильма-катастрофы "Смерть пришла из космоса"
("La morte viene dallo spazio").В космосе взрывается космический корабль, что приводит к тому, что несколько метеоритов с огромной
скоростью направляются к нашей планете. Столкновение с ними угрожает Земле гибелью

Качество: DVDRip-AVC
Формат: MKV
Видео: x264, 1803 Кбит/с, 704х536 crf=22
Аудио 1: Русский (AC3, 2 ch, 160 Кбит/с)
Аудио 2: Английский (AC3, 2 ch, 256 Кбит/с)

Релиз

Рип с английского ДВД и подгонка дорожек - sasha20072007
Озвучка - "Трамвай"
Сравнение с "гуляющей" в сети версией
http://screenshotcomparison.com/comparison/106311
Итальянская безграмотность
http://img.pixs.ru/storage/1/0/5/Denkogdane_8044168_3935105.png
Для Украины: рип дополнительно залит в файлохранилище
Для удаления и добавления дорожек в mkv используйте бесплатную mkvmerge GUI 5.80

Дополнительно

Also Known As (AKA)
Death from Outer Space USA (pre-release title)
Le danger vient de l'éspace France
O thanatos irthe apo to diastima Greece (transliterated ISO-LATIN-1 title)
Rymdpilot XZ svarar ej! Sweden
The Day the Sky Exploded International (imdb display title) (English title

MediaInfo

Общее
Уникальный идентификатор : 180835310936083893334897599436504056197 (0x880B9D314B9F196C9FF7A5CF77024185)
Полное имя : E:\Den.kogda.nebesa.vzorvalis.1958.x264.DVDRip.mkv
Формат : Matroska
Версия формата : Version 2
Размер файла : 1,26 Гбайт
Продолжительность : 1 ч. 19 м.
Общий поток : 2264 Кбит/сек
Название фильма : by sasha20072007, февраль 2012 года
Дата кодирования : UTC 2012-02-04 19:20:42
Программа кодирования : mkvmerge v5.2.1 ('A Far Off Place') built on Jan 31 2012 17:07:03
Библиотека кодирования : libebml v1.2.3 + libmatroska v1.3.0
Видео
Идентификатор : 1
Формат : AVC
Формат/Информация : Advanced Video Codec
Профиль формата : High@L4.1
Параметр CABAC формата : Да
Параметр ReFrames формата : 8 кадров
Идентификатор кодека : V_MPEG4/ISO/AVC
Битрейт : 1803 Кбит/сек
Ширина : 704 пикселя
Высота : 536 пикселей
Соотношение сторон : 4:3
Режим частоты кадров : Переменный
Частота кадров в оригинале : 23,976 кадра/сек
Цветовое пространство : YUV
Субдискретизация насыщенности : 4:2:0
Битовая глубина : 8 бит
Тип развёртки : Прогрессивная
Библиотека кодирования : x264 core 120 r2146 bcd41db
Настройки программы : cabac=1 / ref=8 / deblock=1:-3:-3 / analyse=0x3:0x133 / me=umh / subme=11 / psy=1 / psy_rd=0.90:0.10 / mixed_ref=1 / me_range=32 / chroma_me=1 / trellis=2 / 8x8dct=1 / cqm=0 / deadzone=6,6 / fast_pskip=1 / chroma_qp_offset=-3 / threads=6 / sliced_threads=0 / nr=0 / decimate=0 / interlaced=0 / bluray_compat=0 / constrained_intra=0 / bframes=8 / b_pyramid=2 / b_adapt=2 / b_bias=0 / direct=1 / weightb=1 / open_gop=0 / weightp=2 / keyint=210 / keyint_min=21 / scenecut=40 / intra_refresh=0 / rc_lookahead=60 / rc=crf / mbtree=1 / crf=22.0 / qcomp=0.80 / qpmin=0 / qpmax=69 / qpstep=4 / vbv_maxrate=50000 / vbv_bufsize=50000 / crf_max=0.0 / nal_hrd=none / ip_ratio=1.10 / aq=1:0.50
Язык : English
Default : Да
Forced : Нет
Аудио #1
Идентификатор : 2
Формат : AC-3
Формат/Информация : Audio Coding 3
Расширение режима : CM (complete main)
Параметр Endianness формата : Big
Идентификатор кодека : A_AC3
Продолжительность : 1 ч. 19 м.
Вид битрейта : Постоянный
Битрейт : 160 Кбит/сек
Каналы : 2 канала
Расположение каналов : Front: L R
Частота : 48,0 КГц
Битовая глубина : 16 бит
Метод сжатия : С потерями
Размер потока : 91,5 Мбайт (7%)
Заголовок : Русский (Трамвай)
Язык : Russian
Default : Да
Forced : Нет
Аудио #2
Идентификатор : 3
Формат : AC-3
Формат/Информация : Audio Coding 3
Расширение режима : CM (complete main)
Параметр Endianness формата : Big
Идентификатор кодека : A_AC3
Продолжительность : 1 ч. 19 м.
Вид битрейта : Постоянный
Битрейт : 256 Кбит/сек
Каналы : 3 канала
Расположение каналов : Front: L R, Side: C
Частота : 48,0 КГц
Битовая глубина : 16 бит
Метод сжатия : С потерями
Размер потока : 146 Мбайт (11%)
Язык : English
Default : Нет
Forced : Нет
Меню
00:00:00.000 : en:01
00:05:00.233 : en:02
00:10:00.466 : en:03
00:15:10.933 : en:04
00:20:00.833 : en:05
00:25:00.333 : en:06
00:30:00.599 : en:07
00:35:00.266 : en:08
00:40:00.599 : en:09
00:45:00.000 : en:10
00:50:00.233 : en:11
00:55:00.466 : en:12
01:00:10.933 : en:13
01:10:00.833 : en:14
01:15:00.333 : en:15
01:20:00.599 : en:16
01:25:00.266 : en:17

Скриншоты



cd Рип дополнительно залит на mail.ru cd2


Last edited by admin on 2014-08-12 15:00; edited 2 times in total
[Profile] [PM]

Guest

Gender: Unknown

Post 01-Oct-2012 12:36 (after 9 hours)

[Quote]

есть широформатная копия
 

admin ®

Gender: Male

Longevity: 7 years 2 months

Posts: 4723

Post 01-Oct-2012 13:56 (after 1 hour 20 minutes)

[Quote]

Сверху и снизу не обрезанная?
[Profile] [PM]

Guest

Gender: Unknown

Post 01-Oct-2012 14:48 (after 52 minutes)

[Quote]

качаю из ослика но она у меня была 2 года назад, залью на народ
или сам качай
ed2k://|file|Le%20Danger%20Vient%20De%20L'espace%20de%20Paulo%20Heusch%20FRENCH%20TVRIP%20XVID%20MP3.avi|734715904|8BD967ABA2D49EAE3A0FA0D979374BD6|h=RFEWDIB5DWTYFGNC2HRXWRHQJ7MEOI5R|/
 

admin ®

Gender: Male

Longevity: 7 years 2 months

Posts: 4723

Post 01-Oct-2012 15:12 (after 23 minutes)

[Quote]

Да ну его , осла - там три года качать можно...
[Profile] [PM]
Quick Reply

Name:

            
Heads necessary to send messages to enable JavaScript
Display posts:    
Reply to topic

Current time is: 12-Nov 09:06

All times are UTC + 3



You cannot post new topics in this forum
You can reply to topics in this forum
You cannot edit your posts in this forum
You cannot delete your posts in this forum
You cannot vote in polls in this forum
You cannot attach files in this forum
You cannot download files in this forum