Карантин / Quarantine / Mise en quarantaine (Чарльз Вилкинсон / Charles Wilkinson) [1989, Канада, фантастика, боевик, постапокалипсис, VHSRip] ЛД (den904 & deadsno), АО (Ю.Живов с VHS), СТ (Severnyj)

Reply to topic
DL-List and Torrent activity
Size:  1.66 GB   |    Registered:  11 months 22 days   |    Completed:  1 time

Seeder not seen: 11 months 17 days

 
   
 
 
 
Author Message

kosmoaelita ®

Gender: Male

Longevity: 9 years

Posts: 1768

Post 12-Nov-2016 14:04

[Quote]

Карантин / Quarantine / Mise en quarantaine
Страна: Канада,Apple Pie Pictures, Astral Films
Жанр: фантастика, боевик, постапокалипсис
Год выпуска: 1989
Продолжительность: 01:32:01
Перевод 1: Любительский (двухголосый) den904 & deadsno по субтитрам от Severnyj
Перевод 2: АО Ю.Живов (с VHS)
Режиссер: Чарльз Вилкинсон / Charles Wilkinson
В ролях:
Beatrice Boepple ...Ivan Joad
Garwin Sanford ...Spencer Crown
Jerry Wasserman ...Senator Ford
Tom McBeath ...Lt. Beck
Michele Goodger ...Berlin Ford
Kaj-Erik Eriksen ...The Kid
Susan Chapple ...Senator Campbell
Lee Taylor ...Dr. Jim
Don Mackie ...Ford's doctor
Amy Newman ...Dr. Currie
David Brass ...Tip
Frank Ferrucci ...Guard
Mark Acheson ...Guard
Steve Dotto
Roman Podhora ...Trooper
Описание: В отдаленном будущем, в то время, как общество выкашивает чума, фашистское движение захватывает власть, и в карантин отправляются не только жертвы чумы, но и те, кто с ними связан. Повстанцы пытаются убить чрезмерно реакционного сенатора и неожиданно сталкиваются с программистом, который пытается отследить и искоренить болезнь.
Качество: VHSRip
Формат: MKV
Видео: xvid, 2018 кбит/с, 624x464, 23.976 к/с
Аудио 1: Русский ЛД (AC3, 2 ch, 192 Кбит/с)
Аудио 2: Русский АО (AC3, 2 ch, 192 Кбит/с)
Аудио 3: Английский (МР3, 2 ch, 128 Кбит/с)
Субтитры : Русские (Severnyj)
Работа над релизом:
Видеоряд найден на синемагеддоне.
Русский ЛД перевод - релиз videodemons



Пример русского ЛД перевода

MediaInfo

Общее
Уникальный идентификатор : 252434670502040701414889202575468774733 (0xBDE9262AE70BBBC89E6E74BAE405C54D)
Полное имя : N:\Quarantine 1989.XviD.VHSRip.2xRus.kosmoaelita.mkv
Формат : Matroska
Версия формата : Version 4
Размер файла : 1,66 Гбайт
Продолжительность : 1 ч. 32 м.
Общий поток : 2578 Кбит/сек
Название фильма : Карантин / Quarantine / 1989
Дата кодирования : UTC 2020-10-05 00:35:30
Программа кодирования : mkvmerge v6.6.0 ('The Edge Of The In Between') built on Dec 1 2013 17:55:00
Библиотека кодирования : libebml v1.3.0 + libmatroska v1.4.1
Attachments : Poster.jpg
Видео
Идентификатор : 1
Формат : MPEG-4 Visual
Профиль формата : Simple@L3
Параметр BVOP формата : Нет
Параметр QPel формата : Нет
Параметр GMC формата : Без точки перехода
Параметр матрицы формата : Default (H.263)
Идентификатор кодека : V_MS/VFW/FOURCC / XVID
Идентификатор кодека/Подсказка : XviD
Продолжительность : 1 ч. 32 м.
Битрейт : 2014 Кбит/сек
Ширина : 624 пикселя
Высота : 464 пикселя
Соотношение сторон : 4:3
Режим частоты кадров : Постоянный
Частота кадров : 23,976 (24000/1001) кадра/сек
Цветовое пространство : YUV
Субдискретизация насыщенности : 4:2:0
Битовая глубина : 8 бит
Тип развёртки : Прогрессивная
Метод сжатия : С потерями
Бит/(Пиксели*Кадры) : 0.290
Размер потока : 1,29 Гбайт (78%)
Заголовок : http://kosmoaelita.com/viewtopic.php?t=2222
Библиотека кодирования : XviD 1.2.0.dev47 (UTC 2006-11-01)
Default : Да
Forced : Нет
Аудио #1
Идентификатор : 2
Формат : AC-3
Формат/Информация : Audio Coding 3
Коммерческое название : Dolby Digital
Идентификатор кодека : A_AC3
Продолжительность : 1 ч. 32 м.
Вид битрейта : Постоянный
Битрейт : 192 Кбит/сек
Каналы : 2 канала
ChannelLayout : L R
Частота : 48,0 КГц
Частота кадров : 31,250 кадров/сек (1536 SPF)
Метод сжатия : С потерями
Размер потока : 126 Мбайт (7%)
Заголовок : Русский ЛД (den904&DeadSno) по субтитрам от Severnyj
Язык : Russian
ServiceKind/String : Complete Main
Default : Да
Forced : Нет
Аудио #2
Идентификатор : 3
Формат : AC-3
Формат/Информация : Audio Coding 3
Коммерческое название : Dolby Digital
Идентификатор кодека : A_AC3
Продолжительность : 1 ч. 32 м.
Вид битрейта : Постоянный
Битрейт : 192 Кбит/сек
Каналы : 2 канала
ChannelLayout : L R
Частота : 48,0 КГц
Частота кадров : 31,250 кадров/сек (1536 SPF)
Метод сжатия : С потерями
Размер потока : 126 Мбайт (7%)
Заголовок : Русский АО 9Ю.Живов) с VHS
Язык : Russian
ServiceKind/String : Complete Main
Default : Нет
Forced : Нет
Аудио #3
Идентификатор : 4
Формат : MPEG Audio
Версия формата : Version 1
Профиль формата : Layer 3
Настройки формата : Joint stereo
Идентификатор кодека : A_MPEG/L3
Идентификатор кодека/Подсказка : MP3
Продолжительность : 1 ч. 32 м.
Вид битрейта : Постоянный
Битрейт : 128 Кбит/сек
Каналы : 2 канала
Частота : 48,0 КГц
Частота кадров : 41,667 кадра/сек (1152 SPF)
Метод сжатия : С потерями
Размер потока : 84,2 Мбайт (5%)
Библиотека кодирования : LAME3.97
Настройки программы : -m j -V 4 -q 2 -lowpass 17 -b 128
Язык : English
Default : Нет
Forced : Нет
Текст
Идентификатор : 5
Формат : UTF-8
Идентификатор кодека : S_TEXT/UTF8
Идентификатор кодека/Информация : UTF-8 Plain Text
Заголовок : Русский (Severnyj)
Default : Да
Forced : Нет

Пример субтитров

1
00:00:09,594 --> 00:00:11,720
Я - сенатор Форд.
2
00:00:12,078 --> 00:00:14,865
Граждане, если у вас есть
основания подозревать, что
3
00:00:14,890 --> 00:00:17,939
кто-то из ваших знакомых
является переносчиком инфекции...
4
00:00:18,150 --> 00:00:22,183
Пожалуйста, незамедлительно уведомите
министерство здравоохранения.
5
00:00:22,574 --> 00:00:25,747
Объявим войну бактерии!
-----------------
694
01:27:08,840 --> 01:27:11,401
Да, честно.
695
01:27:13,371 --> 01:27:14,371
Честно.
696
01:27:16,019 --> 01:27:18,889
Офицер, всё в порядке.
697
01:27:20,105 --> 01:27:21,105
Впустите их.
698
01:28:20,105 --> 01:28:24,105
Перевод и субтитры: Severnyj
март, 2016г

Скриншоты








Скринлист

cd Рип дополнительно залит на ОБЛАКО cd2
Quarantine 1989.XviD.VHSRip.2xRus.kosmoaelita.mkv.torrent
Torrent: Registered [ 2020-10-05 03:44 ]

Download .torrent

Download

17 KB

Status: checked
Completed: 1 times
Size: 1.66 GB
 
[Profile] [PM]
Display posts:    
Reply to topic

Current time is: 27-Sep 12:28

All times are UTC + 3



You cannot post new topics in this forum
You cannot reply to topics in this forum
You cannot edit your posts in this forum
You cannot delete your posts in this forum
You cannot vote in polls in this forum
You cannot attach files in this forum
You can download files in this forum