Бику / Bikuu The Movie / Gekijo ban Bikuu (Кэйта Амэмия / Keita Amemiya) [2015, Япония, фантастика, боевик, BDRip-1080p] (ПД : Студия Колобок) (Sub Eng)

Reply to topic
DL-List and Torrent activity
Size:  1.85 GB   |    Registered:  3 years 9 months   |    Completed:  0 times

Seeders:

Username ULR UL DL UL speed DL speed
Holmes 0 0- 0- 0- 0-
shows data only for the current session
 
   
 
 
 
Author Message

Guest ®

Gender: Unknown

Post 02-Nov-2016 20:51

[Quote]

Бику / Bikuu The Movie / Gekijo ban Bikuu
Страна: Япония
Жанр: фантастика, боевик
Год выпуска: 2015
Продолжительность: 01:18:00
Перевод: Профессиональный (двухголосый) _ Студия Колобок
Cубтитры: английские
Режиссер: Кэйта Амэмия / Keita Amemiya
В ролях: Саяка Акимото, Эрика Асакура, Мики Кертис, Казуе Ито, Сиро Сано, Кэнта Суга
Описание: Новый фильм, события которого происходят в мире Гаро.
Бику (Акимото Саяка) - жрица, духовный наставник рыцарей Макаи. Она осуществляет контроль за состоянием души каждого рыцаря. И если Бику заметит, что в чьей-то душе поселилась тьма, в её обязанности входит искоренить это.
Качество видео: BDRip-1080p
Формат видео: MKV
Видео: x264, 2094 кбит/с, 1920x1080, 23.98 к/с,
Аудио: Английский (AC3, 2 ch, 192 Кбит/с)
Аудио 2: Русский ПД (AC3, 2 ch, 192 Кбит/с)
Формат субтитров: hardsub (неотключаемые)

MediaInfo

General
Unique ID : 200344642606857456968088719245559737587 (0x96B8F981F7E9C22EB92A688634742CF3)
Complete name : Бику (2015)\Бику [Студия Колобок].mkv
Format : Matroska
Format version : Version 4 / Version 2
File size : 1.85 GiB
Duration : 1 h 18 min
Overall bit rate : 3 393 kb/s
Encoded date : UTC 2016-07-03 10:15:23
Writing application : mkvmerge v6.2.0 ('Promised Land') built on Apr 28 2013 12:22:01
Writing library : libebml v1.3.0 + libmatroska v1.4.0
Video
ID : 1
Format : AVC
Format/Info : Advanced Video Codec
Format profile : High@L4.1
Format settings, CABAC : Yes
Format settings, ReFrames : 4 frames
Codec ID : V_MPEG4/ISO/AVC
Duration : 1 h 18 min
Bit rate : 3 199 kb/s
Width : 1 920 pixels
Height : 1 080 pixels
Display aspect ratio : 16:9
Frame rate mode : Constant
Frame rate : 23.976 (24000/1001) FPS
Color space : YUV
Chroma subsampling : 4:2:0
Bit depth : 8 bits
Scan type : Progressive
Bits/(Pixel*Frame) : 0.064
Stream size : 1.71 GiB (92%)
Writing library : x264 core 146 r2538 121396c
Encoding settings : cabac=1 / ref=3 / deblock=1:0:0 / analyse=0x3:0x133 / me=umh / subme=10 / psy=1 / psy_rd=1.00:0.00 / mixed_ref=1 / me_range=16 / chroma_me=1 / trellis=2 / 8x8dct=1 / cqm=0 / deadzone=21,11 / fast_pskip=1 / chroma_qp_offset=-2 / threads=12 / lookahead_threads=1 / sliced_threads=0 / nr=0 / decimate=1 / interlaced=0 / bluray_compat=0 / constrained_intra=0 / bframes=3 / b_pyramid=2 / b_adapt=1 / b_bias=0 / direct=1 / weightb=1 / open_gop=0 / weightp=2 / keyint=240 / keyint_min=23 / scenecut=40 / intra_refresh=0 / rc_lookahead=30 / rc=2pass / mbtree=1 / bitrate=3199 / ratetol=1.0 / qcomp=0.60 / qpmin=10 / qpmax=51 / qpstep=4 / cplxblur=20.0 / qblur=0.5 / vbv_maxrate=62500 / vbv_bufsize=78125 / nal_hrd=none / filler=0 / ip_ratio=1.40 / aq=1:1.50
Default : Yes
Forced : No
Audio
ID : 2
Format : AC-3
Format/Info : Audio Coding 3
Mode extension : CM (complete main)
Format settings, Endianness : Big
Codec ID : A_AC3
Duration : 1 h 18 min
Bit rate mode : Constant
Bit rate : 192 kb/s
Channel(s) : 2 channels
Channel positions : Front: L R
Sampling rate : 48.0 kHz
Frame rate : 31.250 FPS (1536 spf)
Bit depth : 16 bits
Compression mode : Lossy
Stream size : 107 MiB (6%)
Default : Yes
Forced : No

Скриншоты







Скринлист

cd Рип дополнительно залит на ОБЛАКО cd2
Бику [Студия Колобок].mkv.torrent
Torrent: Registered [ 2016-11-02 20:51 ]

Download .torrent

Download

19 KB

Status: checked
Completed: 0 times
Size: 1.85 GB
 


Last edited by Guest on 2016-11-02 21:30; edited 6 times in total
 

CROM@G

Gender: Male

Longevity: 4 years 10 months

Posts: 3335

Location: Прибалтика

Post 02-Nov-2016 21:03 (after 11 minutes)

[Quote]

Постер великоват . Да черт с ним . Но это не мое Японская фантастика тока очень точечно для меня Тоже на облако залейте по возможности .
[Profile] [PM]

Трамвай-фильм

Gender: Male

Longevity: 6 years

Posts: 1843

Location: Россия

Post 02-Nov-2016 21:12 (after 8 minutes)

[Quote]

Постер вообще ссылкой идет
16895Но это не мое Японская фантастика тока очень точечно для меня. Тоже на облако залейте по возможности.
По ней Фаэр специализировался одно время
[Profile] [PM]

CROM@G

Gender: Male

Longevity: 4 years 10 months

Posts: 3335

Location: Прибалтика

Post 02-Nov-2016 21:24 (after 12 minutes)

[Quote]

Трамвай-фильм, Нырнул Фаер в мир дебета и кредита.
[Profile] [PM]

Трамвай-фильм

Gender: Male

Longevity: 6 years

Posts: 1843

Location: Россия

Post 02-Nov-2016 23:18 (after 1 hour 53 minutes)

[Quote]

По самую голову....
[Profile] [PM]

CROM@G

Gender: Male

Longevity: 4 years 10 months

Posts: 3335

Location: Прибалтика

Post 03-Nov-2016 00:16 (after 58 minutes)

[Quote]

Может уже и не появится. Или появится года через пол.
[Profile] [PM]
Display posts:    
Reply to topic

Current time is: 04-Aug 22:34

All times are UTC + 3



You cannot post new topics in this forum
You cannot reply to topics in this forum
You cannot edit your posts in this forum
You cannot delete your posts in this forum
You cannot vote in polls in this forum
You cannot attach files in this forum
You can download files in this forum