Трансеры: Город потерянных ангелов / Trancers: City of Lost Angels (Чарльз Бэнд / Charles Band) [2013, 1988, США, Фантастика, DVDRip] (ПД : Студия Колобок)

Reply to topic
DL-List and Torrent activity
Size:  265 MB   |    Registered:  1 year 1 month   |    Completed:  0 times

Seeder not seen: 1 year 1 month

 
   
 
 
 
Author Message

Guest ®

Gender: Unknown

Post 02-Nov-2016 19:33

[Quote]

Трансеры: Город потерянных ангелов / Trancers: City of Lost Angels
Страна: США
Жанр: Фантастика
Год выпуска: 2013, 1988
Продолжительность: 00:24:39
Перевод: Профессиональный (двухголосый) Студия Колобок
Режиссер: Чарльз Бэнд / Charles Band
В ролях: Тим Томерсон, Элисон Крофт, Хелен Хант, Арт ЛаФлёр, Тельма Хопкинс, Грейс Забриски, Вэльвет Родс
Описание: Короткометражный фантастический боевик о Джеке Дете – полицейском из мрачного будущего. В будущем изобрели машину времени, позволяющую перемещать разум человека в тело его предка из прошлого (вне зависимости от пола или возраста). Оказавшись у нас, он познакомился с девушкой Линой и открыл детективное агентство. В момент их ссоры, из будущего в прошлое бежит опасная преступница, решившая поквитаться с Джеком… Фильм является частью долгой фантастический франшизы «Трансеры», сюжетно проходя между первой частью и второй – самыми удачными выпусками.
Доп. информация: Очень раритетный фильм с удивительной историей происхождения. Он был снят в 1988-ом году, но был потерян из-за банкротства киностудии. Уже в 2011-ом режиссёр картины Чарльз Бэнд («Повелитель кукол», «Бей и жги» и др.) случайно наткнулся на старую плёнку, с удивлением обнаружив там некогда потерянный материал. И вот, пройдя долгую реставрацию, спустя более двух десятков лет с момента создания, состоялась долгожданная премьера фильма!
Что нам это даёт: во-первых, «старый, добрый» фантастический боевик из эпохи 80-х, который тогда никто не видел, а теперь он удивительным образом появился; во-вторых, никому не известную промежуточную часть долгой франшизы «Трансеры» - по сюжету она между первой и второй частью; в-третьих, вновь молодых актёров на экране Тима Томерсона (его должны помнить по фантастике и боевикам категории Б) и Хелен Хант (после она стала известной голливудской звездой).
Качество видео: DVDRip
Формат видео: MKV
Видео: XVID, 1166 кбит/с, 608x352, 23.976 к/с
Аудио 1: Русский ПД (AC3, 2 ch, 192 Кбит/с)
Аудио 2: English, 128 kb/s, 48.0 kHz, 16 bits, 2 channels, MP3

MediaInfo

Общее
Уникальный идентификатор : 222026614635802027260649753475617546417 (0xA708C54346ADBD8F91392BEBC83260B1)
Полное имя : N:\BD-DISC\Trancers 1.5 - City of Lost Angels (1988)\Trancers City of Lost Angels 1988.XviD.DVDRip.Rus.mkv
Формат : Matroska
Версия формата : Version 4 / Version 2
Размер файла : 265 Мбайт
Продолжительность : 24 м.
Режим общего битрейта : Переменный
Общий поток : 1502 Кбит/сек
Название фильма : Trancers - City of Lost Angels 1988 / kosmoaelita
Дата кодирования : UTC 2019-01-01 20:59:21
Программа кодирования : mkvmerge v6.6.0 ('The Edge Of The In Between') built on Dec 1 2013 17:55:00
Библиотека кодирования : libebml v1.3.0 + libmatroska v1.4.1
Attachments : poster.jpg
Видео
Идентификатор : 1
Формат : MPEG-4 Visual
Профиль формата : Advanced Simple@L5
Параметр BVOP формата : 1
Параметр QPel формата : Нет
Параметр GMC формата : Без точки перехода
Параметр матрицы формата : Выборочная
Идентификатор кодека : V_MS/VFW/FOURCC / XVID
Идентификатор кодека/Подсказка : XviD
Продолжительность : 24 м.
Битрейт : 1166 Кбит/сек
Ширина : 608 пикселей
Высота : 352 пикселя
Соотношение сторон : 1,727
Режим частоты кадров : Постоянный
Частота кадров : 23,976 (24000/1001) кадра/сек
Цветовое пространство : YUV
Субдискретизация насыщенности : 4:2:0
Битовая глубина : 8 бит
Тип развёртки : Прогрессивная
Метод сжатия : С потерями
Бит/(Пиксели*Кадры) : 0.227
Размер потока : 206 Мбайт (78%)
Заголовок : http://kosmoaelita.com/viewtopic.php?t=2193
Библиотека кодирования : XviD 1.2.0.dev47 (UTC 2006-11-01)
Default : Да
Forced : Нет
Аудио #1
Идентификатор : 2
Формат : AC-3
Формат/Информация : Audio Coding 3
Расширение режима : CM (complete main)
Параметр Endianness формата : Big
Идентификатор кодека : A_AC3
Продолжительность : 24 м.
Вид битрейта : Постоянный
Битрейт : 192 Кбит/сек
Каналы : 2 канала
Расположение каналов : Front: L R
Частота : 48,0 КГц
Частота кадров : 31,250 кадров/сек (1536 spf)
Метод сжатия : С потерями
Размер потока : 33,9 Мбайт (13%)
Заголовок : Русский ЛД (den904 & DeadSno)
Язык : Russian
Default : Да
Forced : Нет
Аудио #2
Идентификатор : 3
Формат : MPEG Audio
Версия формата : Version 1
Профиль формата : Layer 3
Режим : Joint stereo
Расширение режима : MS Stereo
Идентификатор кодека : A_MPEG/L3
Идентификатор кодека/Подсказка : MP3
Продолжительность : 24 м.
Вид битрейта : Переменный
Битрейт : 114 Кбит/сек
Номинальный битрейт : 128 Кбит/сек
Каналы : 2 канала
Частота : 48,0 КГц
Метод сжатия : С потерями
Размер потока : 20,1 Мбайт (8%)
Библиотека кодирования : LAME3.98r
Настройки программы : -m j -V 4 -q 2 -lowpass 17 --abr 128
Язык : English
Default : Нет
Forced : Нет

Скриншоты



Скринлист

cd Рип дополнительно залит на ОБЛАКО cd2
Trancers City of Lost Angels 1988.XviD.DVDRip.Rus.mkv.torrent
Torrent: Registered [ 2019-01-02 00:06 ]

Download .torrent

Download

5 KB

Status: checked
Completed: 0 times
Size: 265 MB
 


Last edited by Guest on 2016-11-02 22:04; edited 3 times in total
 

Трамвай-фильм

Gender: Male

Longevity: 5 years 6 months

Posts: 1797

Location: Россия

Post 02-Nov-2016 19:56 (after 23 minutes)

[Quote]

Копать-молотить!! Я то думал все серии этого фильма видел, правда давно. А тут вон еще спин-офф есть!
[Profile] [PM]

Guest ®

Gender: Unknown

Post 02-Nov-2016 20:11 (after 14 minutes)

[Quote]

Да уж, качество видеофайла конечно не впечатляет.
 

CROM@G

Gender: Male

Longevity: 4 years 5 months

Posts: 3057

Location: Прибалтика

Post 02-Nov-2016 20:52 (after 41 minute)

[Quote]

ааа .Терь вижу что сработало


Last edited by CROM@G on 2016-11-02 20:53; edited 1 time in total
[Profile] [PM]

Guest ®

Gender: Unknown

Post 02-Nov-2016 20:53 (after 42 seconds)

[Quote]

Да, но сработало когда я убрал все ссылки из торрента - т.е. оставил поле пустым.
 

CROM@G

Gender: Male

Longevity: 4 years 5 months

Posts: 3057

Location: Прибалтика

Post 02-Nov-2016 21:29 (after 36 minutes)

[Quote]

Скорость какая-то дохлая . Гм гм .
[Profile] [PM]

Guest ®

Gender: Unknown

Post 02-Nov-2016 21:30 (after 1 minute)

[Quote]

А как увеличить?
 

CROM@G

Gender: Male

Longevity: 4 years 5 months

Posts: 3057

Location: Прибалтика

Post 02-Nov-2016 21:34 (after 3 minutes)

[Quote]

16901А как увеличить?
А никак . Я просто удивился немного . Я человек терпеливый и за 10 лет посиделок на трекерах хоть и выдал не одну кучу мата , но ни разу не кричал ,,Дайте скорости,, Если только канал забит и кто - то еще другие раздачи тянет тогда скорость может быть низкой . А все спидтесты на скорость все равно показывают номер галош на моей даче.
[Profile] [PM]

Трамвай-фильм

Gender: Male

Longevity: 5 years 6 months

Posts: 1797

Location: Россия

Post 02-Nov-2016 23:19 (after 1 hour 45 minutes)

[Quote]

Скорость вообще дело субъективное. Одним пользакам раздача идет по 1.2 мбайта/с, другим 12 кбайт/с. И в чем проблема - хрен знаешь. А орать дайте скорости тут бессмысленно.
Например админ с меня качает очень быстро, а вот Шорох еле-еле качал
[Profile] [PM]

CROM@G

Gender: Male

Longevity: 4 years 5 months

Posts: 3057

Location: Прибалтика

Post 03-Nov-2016 00:18 (after 59 minutes)

[Quote]

У Шороха инет медленный и судя по характеристикам далеко не оптика У меня и у админа оптика стоит .2 большие разницы У меня похожий как у Шороха еще лет 6 назад стоял
[Profile] [PM]

Трамвай-фильм

Gender: Male

Longevity: 5 years 6 months

Posts: 1797

Location: Россия

Post 03-Nov-2016 17:11 (after 16 hours)

[Quote]

16906У Шороха инет медленный и судя по характеристикам далеко не оптика У меня и у админа оптика стоит .2 большие разницы У меня похожий как у Шороха еще лет 6 назад стоял
АДСЛ у него. В РФ это до сих пор самый распространенный вид связи. У меня выделенка появилась только в 2013, до этого. с 2006 был АДСЛ. Но дело не в этом. Даже другие выделенки, например с Кирова, могут качать 10-30 кб/с, а потом внезапно давать по 650-700 кб/с
Кстати да, когда АДСЛ - там потолок отдачи 512 кб/с.
[Profile] [PM]

AlexNT60

Gender: Male

Longevity: 7 years

Posts: 123

Location: СПб

Post 01-Jan-2019 20:03 (after 2 years 1 month)

[Quote]

Че-то не нашел в рипе англ. дорожки ak bn
[Profile] [PM]

Guest

Gender: Unknown

Longevity: 50 years

Post 02-Jan-2019 00:07 (after 4 hours)

[Quote]

Добавлена англ. дорожка
[Profile] [PM]
Display posts:    
Reply to topic

Current time is: 29-Feb 07:19

All times are UTC + 3



You cannot post new topics in this forum
You cannot reply to topics in this forum
You cannot edit your posts in this forum
You cannot delete your posts in this forum
You cannot vote in polls in this forum
You cannot attach files in this forum
You can download files in this forum