Дроид / Droid / X trop (Филип О’Тул / Philip O'Toole (as Peter Williams) [1988, США, Фантастика, VHSRip] ЛО (den904), СТ (koto2008)

Reply to topic
 
Author Message

kosmoaelita ®

Gender: Male

Longevity: 6 years 10 months

Posts: 965

Location: Украина

Post 30-Oct-2016 12:34

[Quote]

Дроид / Droid / X trop
Страна: США, Even Steven Productions
Жанр: Фантастика, эротика
Год выпуска: 1988
Продолжительность: 01:07:29
Перевод: ЛО den904 по субтитрам от koto2008-kosmoaelita
Режиссер: Филип О’Тул / Philip O'Toole (as Peter Williams)
В ролях:
Greg Derek ... Taylor (as Kevin Jean)
Krista Lane ... Nicola (as Rebecca Lynn)
Lorrie Lovett ... Azteca
Kristara Barrington ... Geisha
Kevin James ... Reformer
Herschel Savage ... Turk
Bunny Bleu ... Tammy Dorsey (as Bunny Blu)
Candie Evans ... Marilyn (as Candi Evans)
Keisha ...Dancer
Tom Byron ...Dancer
Tish Ambrose ... Harem Girl
Leslie Winston ... Harem Girl
Chris Thompson ... Horn Section
Tex Anthony ... Horn Section
Brute Force ... Bouncer
Описание: Taylor, a member of the new Eliminators police force, is sent on a mission to recover a digital decoder that will shut down the renegade police force, droids called reformers led in a revolt by Azteca, but is distracted by reunion with his estranged wife, and various striptease and sex shows at the club.
Релиз

Качество: VHSRip
Формат: MKV
Видео: xviD, 1316 кбит/с, 640x480 23.976 к/с
Аудио 1: Русский ЛО (den904) (AC3, 2 ch, 192 Кбит/с)
Аудио 2: Английский (MP3, 2 ch, 128 Кбит/с)
Субтитры : Русские (koto2008-kosmoaelita)
Работа над релизом:
Релиз kosmoaelita.
Видеоряд найден на СГ.
Перевод на слух с англ. по заказу kosmoaelita - koto2008
Русская озвучка по заказу kosmoaelita - den904
Спонсор русской озвучки - Андрей Берг



Пример русских субтитров

Дополнительно

слоган «Part Man, Part Machine... All Killer!»
возраст зрителям, достигшим 18 лет

MediaInfo

Общее
Уникальный идентификатор : 184484761863944177618687518469534794725 (0x8ACA7903E544C8D3A26A6B3CD52C43E5)
Полное имя : N:\Droid 1988.XviD.VHSRip.Rus.kosmoaelita.mkv
Формат : Matroska
Версия формата : Version 4 / Version 2
Размер файла : 791 Мбайт
Продолжительность : 1 ч. 7 м.
Общий поток : 1640 Кбит/сек
Название фильма : Дроид / Droid / 1988 / Релиз kosmoaelita.com
Дата кодирования : UTC 2016-12-07 21:22:16
Программа кодирования : mkvmerge v6.6.0 ('The Edge Of The In Between') built on Dec 1 2013 17:55:00
Библиотека кодирования : libebml v1.3.0 + libmatroska v1.4.1
Attachments : POSTER droid 1988.jpg
Видео
Идентификатор : 1
Формат : MPEG-4 Visual
Профиль формата : Advanced Simple@L5
Параметр BVOP формата : 1
Параметр QPel формата : Нет
Параметр GMC формата : Без точки перехода
Параметр матрицы формата : Выборочная
Идентификатор кодека : V_MS/VFW/FOURCC / XVID
Идентификатор кодека/Подсказка : XviD
Продолжительность : 1 ч. 7 м.
Битрейт : 1287 Кбит/сек
Ширина : 640 пикселей
Высота : 480 пикселей
Соотношение сторон : 4:3
Режим частоты кадров : Постоянный
Частота кадров : 23,976 (23976/1000) кадра/сек
Цветовое пространство : YUV
Субдискретизация насыщенности : 4:2:0
Битовая глубина : 8 бит
Тип развёртки : Прогрессивная
Метод сжатия : С потерями
Бит/(Пиксели*Кадры) : 0.175
Размер потока : 621 Мбайт (78%)
Заголовок : kosmoaelita
Библиотека кодирования : XviD 1.2.1 (UTC 2008-12-04)
Default : Да
Forced : Нет
Аудио #1
Идентификатор : 2
Формат : AC-3
Формат/Информация : Audio Coding 3
Расширение режима : CM (complete main)
Параметр Endianness формата : Big
Идентификатор кодека : A_AC3
Продолжительность : 1 ч. 7 м.
Вид битрейта : Постоянный
Битрейт : 192 Кбит/сек
Каналы : 2 канала
Расположение каналов : Front: L R
Частота : 48,0 КГц
Частота кадров : 31,250 кадров/сек (1536 spf)
Метод сжатия : С потерями
Размер потока : 92,7 Мбайт (12%)
Заголовок : Русский ЛО (den904 для kosmoaelita.com) - поддержка А.Берг
Язык : Russian
Default : Да
Forced : Нет
Аудио #2
Идентификатор : 3
Формат : MPEG Audio
Версия формата : Version 1
Профиль формата : Layer 3
Идентификатор кодека : A_MPEG/L3
Идентификатор кодека/Подсказка : MP3
Продолжительность : 1 ч. 7 м.
Вид битрейта : Постоянный
Битрейт : 128 Кбит/сек
Каналы : 2 канала
Частота : 44,1 КГц
Метод сжатия : С потерями
Задержка видео : 26 мс.
Размер потока : 61,8 Мбайт (8%)
Язык : English
Default : Нет
Forced : Нет
Текст #1
Идентификатор : 4
Формат : VobSub
Режим смешивания : zlib
Идентификатор кодека : S_VOBSUB
Идентификатор кодека/Информация : Picture based subtitle format used on DVDs
Заголовок : Русский (kosmoaelita,koto2008) VobSub - перевод на слух с англ.
Язык : Russian
Default : Да
Forced : Нет
Текст #2
Идентификатор : 5
Формат : VobSub
Режим смешивания : zlib
Идентификатор кодека : S_VOBSUB
Идентификатор кодека/Информация : Picture based subtitle format used on DVDs
Заголовок : Русский (kosmoaelita,koto2008) VobSub - перевод на слух с англ.
Язык : Russian
Default : Нет
Forced : Нет
Текст #3
Идентификатор : 6
Формат : UTF-8
Идентификатор кодека : S_TEXT/UTF8
Идентификатор кодека/Информация : UTF-8 Plain Text
Заголовок : Русский (kosmoaelita,koto2008) srt - перевод на слух с англ.
Язык : Russian
Default : Нет
Forced : Нет

Пример субтитров

2
00:00:09,655 --> 00:00:13,817
В ролях: Кевин Жан,
3
00:00:16,389 --> 00:00:20,878
Ракель Риос.
4
00:00:22,806 --> 00:00:27,962
Впервые на экране
Стивен Денсмор.
5
00:00:37,483 --> 00:00:43,993
Режиссер: Питер Уильямс.
6
00:00:44,946 --> 00:00:50,047
"Дроид"
[Droid, 1988г]
7
00:00:55,299 --> 00:00:59,011
Перевод koto2008
для сайта kosmoaelita.com
8
00:01:06,634 --> 00:01:11,476
Всё началось, когда
Доминанты покинули Землю,
------------------------------
326
01:05:53,284 --> 01:05:55,639
Смотри, Тейлор, он жив!
327
01:05:55,674 --> 01:05:57,939
Поднимите же меня!
328
01:05:57,964 --> 01:05:59,566
Так-то лучше.
329
01:05:59,601 --> 01:06:04,077
Я ни разу в жизни так
не ронял свое достоинство.

Скриншоты













Скринлист



Last edited by kosmoaelita on 2016-12-23 18:38; edited 6 times in total
[Profile] [PM]

Susanin

Gender: Male

Longevity: 5 years 3 months

Posts: 813

Post 30-Oct-2016 13:32 (after 57 minutes)

[Quote]

А что, Кото опять появился?
[Profile] [PM]

kosmoaelita ®

Gender: Male

Longevity: 6 years 10 months

Posts: 965

Location: Украина

Post 30-Oct-2016 13:53 (after 21 minute)

[Quote]

Да.
[Profile] [PM]

croMAG

Gender: Male

Longevity: 3 years 10 months

Posts: 2169

Location: Прибалтика

Post 01-Nov-2016 23:40 (after 2 days 9 hours)

[Quote]

А куда здесь торрент сьебся 01
[Profile] [PM]

kosmoaelita ®

Gender: Male

Longevity: 6 years 10 months

Posts: 965

Location: Украина

Post 02-Nov-2016 03:05 (after 3 hours)

[Quote]

Он даже не появлялся.
Фильм нужно просмотреть. Сабы подправить ab
[Profile] [PM]

kosmoaelita ®

Gender: Male

Longevity: 6 years 10 months

Posts: 965

Location: Украина

Post 07-Nov-2016 03:46 (after 5 days)

[Quote]

Очень экстравагантное кино ab
В фильме появляется знакомый автомобильчик по "Бегству Логана" и некоторых других творений ab
Слегка модифицированный ab

[Profile] [PM]

croMAG

Gender: Male

Longevity: 3 years 10 months

Posts: 2169

Location: Прибалтика

Post 07-Nov-2016 09:24 (after 5 hours)

[Quote]

Судя по всему тут сисек много
[Profile] [PM]

kosmoaelita ®

Gender: Male

Longevity: 6 years 10 months

Posts: 965

Location: Украина

Post 07-Nov-2016 09:49 (after 25 minutes)

[Quote]

Стриптиза много ab
[Profile] [PM]

croMAG

Gender: Male

Longevity: 3 years 10 months

Posts: 2169

Location: Прибалтика

Post 07-Nov-2016 10:27 (after 37 minutes)

[Quote]

kosmoaelita, И все ???
[Profile] [PM]

kosmoaelita ®

Gender: Male

Longevity: 6 years 10 months

Posts: 965

Location: Украина

Post 08-Dec-2016 00:40 (after 1 month)

[Quote]

Добавлена русская озвучка от den904
[Profile] [PM]

croMAG

Gender: Male

Longevity: 3 years 10 months

Posts: 2169

Location: Прибалтика

Post 08-Dec-2016 01:24 (after 43 minutes)

[Quote]

Фильм должен называтся ,,Сиськадроид ,,
[Profile] [PM]
Display posts:    
Reply to topic

Current time is: 19-Jul 08:53

All times are UTC + 3



You cannot post new topics in this forum
You cannot reply to topics in this forum
You cannot edit your posts in this forum
You cannot delete your posts in this forum
You cannot vote in polls in this forum
You cannot attach files in this forum
You cannot download files in this forum