Австралочужие / Australiens (Джо Бауэр / Joe Bauer) [2014, Австралия, фантастика, комедия, WEBDL-720p] (ПД : Колобок)

Reply to topic
DL-List and Torrent activity
Size:  2.06 GB   |    Registered:  2 years 7 months   |    Completed:  0 times

Seeder not seen: 2 years 5 months

 
   
 
 
 
Author Message

den904 ®

Gender: Male

Longevity: 5 years 11 months

Posts: 185

Post 17-Oct-2016 14:52

[Quote]

Австралочужие / Australiens
Страна: Австралия, ArtSpear Entertainment
Жанр: фантастика, комедия
Год выпуска: 2014
Продолжительность: 01:51:18
Перевод: Профессиональный (двухголосый) Колобок
Cубтитры: нет
Режиссер: Джо Бауэр / Joe Bauer
В ролях: Рита Артманн, Тамара МакЛахлин, Лоуренс Сильвер, Даг Хатч, Джо Бауэр, Эмма Рэндолл, Роб Дженкинс, Пол Адамс, Кайл МакКэллион, Каролин Бэлл
Описание: В возрасте 10 лет, австралийка Энди Гибсон, как она утверждает, вступила в контакт с НЛО, который наделил ее суперспособностями. Однако, долгое время все считали, что это просто детские выдумки, пока 17 лет спустя инопланетная армада не начинает атаку на Австралию и похищает мать Энди. Другие страны остаются равнодушными к судьбе Австралии, и тогда приходит очередь Энди, ее брата-ипохондрика Эллиота, кузена - бывшего боксера Кита, подруги - документалистки Камиллы и вечно пьяного флейтиста Джона спасать мать Энди, а заодно и планету. Ребятам приходится сражаться с пришельцам, разбираться со скелетами в семейном шкафу Гибсонов, что сопровождается черным юмором в стиле Людей в черном и Марс атакует, но на свой австралийский манер.
Доп. информация: Перевод: Harley Qeen
Озвучка: 2D
Качество видео: WEBDL-720p
Формат видео: MKV
Видео: MPEG4, 1 280 х 720, 16:9, 23.976, 2 213 kb/s
Аудио 1: Русский AC-3, 48.0 kHz, 192 kb/s, 2 channels
Аудио 2: Английский AC-3, 48.0 kHz, 192 kb/s, 2 channels
Субтитры : Английские
Работа над релизом:
Видеоряд найден в сети



Пример русского перевода

Дополнительно

бюджет AUD 20 000

MediaInfo

Общее
Уникальный идентификатор : 224870849127530717199231791528552681552 (0xA92C8CD99BE653D9BA64B00B182FD050)
Полное имя : N:\Australiens 2014.x264.WEBRip.720p.Kolobok.mkv
Формат : Matroska
Версия формата : Version 4 / Version 2
Размер файла : 2,06 Гбайт
Продолжительность : 1 ч. 51 м.
Общий поток : 2650 Кбит/сек
Название фильма : Австралочужие / Australiens / 2014 WebRip-720p
Дата кодирования : UTC 2016-10-18 00:31:23
Программа кодирования : mkvmerge v6.6.0 ('The Edge Of The In Between') built on Dec 1 2013 17:55:00
Библиотека кодирования : libebml v1.3.0 + libmatroska v1.4.1
Attachments : poster_.jpg
Видео
Идентификатор : 1
Формат : AVC
Формат/Информация : Advanced Video Codec
Профиль формата : High@L3.2
Параметр CABAC формата : Да
Параметр ReFrames формата : 5 кадров
Идентификатор кодека : V_MPEG4/ISO/AVC
Продолжительность : 1 ч. 51 м.
Битрейт : 2213 Кбит/сек
Ширина : 1280 пикселей
Высота : 720 пикселей
Соотношение сторон : 16:9
Режим частоты кадров : Постоянный
Частота кадров : 23,976 (24000/1001) кадра/сек
Цветовое пространство : YUV
Субдискретизация насыщенности : 4:2:0
Битовая глубина : 8 бит
Тип развёртки : Прогрессивная
Бит/(Пиксели*Кадры) : 0.100
Размер потока : 1,72 Гбайт (84%)
Заголовок : kosmoaelita
Библиотека кодирования : x264 core 148 r11 3b70645
Настройки программы : cabac=1 / ref=5 / deblock=1:0:0 / analyse=0x3:0x113 / me=umh / subme=8 / psy=1 / psy_rd=1.00:0.00 / mixed_ref=1 / me_range=16 / chroma_me=1 / trellis=1 / 8x8dct=1 / cqm=0 / deadzone=21,11 / fast_pskip=1 / chroma_qp_offset=-2 / threads=22 / lookahead_threads=3 / sliced_threads=0 / nr=0 / decimate=1 / interlaced=0 / bluray_compat=0 / stitchable=1 / constrained_intra=0 / bframes=3 / b_pyramid=2 / b_adapt=2 / b_bias=0 / direct=3 / weightb=1 / open_gop=0 / weightp=2 / keyint=infinite / keyint_min=23 / scenecut=40 / intra_refresh=0 / rc_lookahead=50 / rc=crf / mbtree=1 / crf=20.0 / qcomp=0.60 / qpmin=5 / qpmax=69 / qpstep=4 / vbv_maxrate=2750 / vbv_bufsize=7500 / crf_max=0.0 / nal_hrd=none / filler=0 / ip_ratio=1.40 / aq=1:1.00
Default : Да
Forced : Нет
Цветовой диапазон : Limited
Основные цвета : BT.709
Характеристики трансфера : BT.709
Коэффициенты матрицы : BT.709
Аудио #1
Идентификатор : 2
Формат : AC-3
Формат/Информация : Audio Coding 3
Расширение режима : CM (complete main)
Параметр Endianness формата : Big
Идентификатор кодека : A_AC3
Продолжительность : 1 ч. 51 м.
Вид битрейта : Постоянный
Битрейт : 192 Кбит/сек
Каналы : 2 канала
Расположение каналов : Front: L R
Частота : 48,0 КГц
Частота кадров : 31,250 кадров/сек (1536 spf)
Метод сжатия : С потерями
Размер потока : 153 Мбайт (7%)
Заголовок : Русский ЛД (Студия Колобок)
Язык : Russian
Default : Да
Forced : Нет
Аудио #2
Идентификатор : 3
Формат : AC-3
Формат/Информация : Audio Coding 3
Расширение режима : CM (complete main)
Параметр Endianness формата : Big
Идентификатор кодека : A_AC3
Продолжительность : 1 ч. 51 м.
Вид битрейта : Постоянный
Битрейт : 192 Кбит/сек
Каналы : 2 канала
Расположение каналов : Front: L R
Частота : 48,0 КГц
Частота кадров : 31,250 кадров/сек (1536 spf)
Метод сжатия : С потерями
Размер потока : 153 Мбайт (7%)
Язык : English
Default : Нет
Forced : Нет
Текст
Идентификатор : 4
Формат : UTF-8
Идентификатор кодека : S_TEXT/UTF8
Идентификатор кодека/Информация : UTF-8 Plain Text
Язык : English
Default : Да
Forced : Нет

Скриншоты










Скринлист

cd Рип дополнительно залит на ОБЛАКО cd2
Australiens 2014.x264.WEBRip.720p.Kolobok.mkv.torrent
Torrent: Registered [ 2016-10-18 03:47 ]

Download .torrent

Download

42 KB

Status: checked
Completed: 0 times
Size: 2.06 GB
 
[Profile] [PM]

kosmoaelita

Gender: Male

Longevity: 6 years 8 months

Posts: 965

Location: Украина

Post 17-Oct-2016 23:57 (after 9 hours)

[Quote]

Это случайно не обезбашенное австралийское творение по типу 25-го Рейха? ab
[Profile] [PM]

kosmoaelita

Gender: Male

Longevity: 6 years 8 months

Posts: 965

Location: Украина

Post 18-Oct-2016 03:48 (after 3 hours)

[Quote]

Добавлена оригинальная дорожка
[Profile] [PM]

den904 ®

Gender: Male

Longevity: 5 years 11 months

Posts: 185

Post 18-Oct-2016 09:15 (after 5 hours)

[Quote]

kosmoaelita, ну тут без изврата и мата , в общем детям можно показывать, в отличие от того)
[Profile] [PM]

Трамвай-фильм

Gender: Male

Longevity: 4 years 9 months

Posts: 1454

Location: Россия

Post 18-Oct-2016 18:44 (after 9 hours)

[Quote]

Трэш деградировал...
[Profile] [PM]
Display posts:    
Reply to topic

Current time is: 26-May 11:05

All times are UTC + 3



You cannot post new topics in this forum
You cannot reply to topics in this forum
You cannot edit your posts in this forum
You cannot delete your posts in this forum
You cannot vote in polls in this forum
You cannot attach files in this forum
You can download files in this forum