Битва вождей / Clash of the Warlords / Mad Warrior (Уилли Милан / Willy Milan) [1985, Филиппины, фантастика, постапокалипсис, VHSRip] ЛО (Erogg), ЛО (Andi), СТ (Mimoid)

Reply to topic
DL-List and Torrent activity
Size:  1.29 GB   |    Registered:  4 years 1 month   |    Completed:  0 times

Seeder not seen: 1 year 6 months

 
   
 
 
 
Author Message

kosmoaelita ®

Gender: Male

Longevity: 8 years 3 months

Posts: 1710

Post 16-Oct-2016 03:13

[Quote]

Битва вождей / Clash of the Warlords / Mad Warrior
Страна: Филиппины, JPM Productions
Жанр: фантастика, постапокалипсис
Год выпуска: 1985
Продолжительность: 01:12:52
Перевод: Любительский (одноголосый) Erogg по субтитрам от Mimoid
Перевод 2: Любительский (одноголосый) Andi по субтитрам от Mimoid
Режиссер: Уилли Милан / Willy Milan
В ролях:
Anthony Alonzo
Jennifer Kirkham
Johnny Monteiro
Dan Alvaro
Ada Alberto
Rex Lapid
Roi Vinzon
Joonee Gamboa
Rommel Valdez
Max Laurel
Rest of cast listed alphabetically:
Mel Arca
Robert Benson
Alex Bolado
Edward Burnett ... (as Edward Bronett)
Linda Castro
Описание: Постъядерные Филиппины... Одичавшие люди и скрытые технологии... Брат за брата, кровь за кровь и, как результат- битва вождей
Качество: VHSRip
Формат: MKV
Видео: x264, 1907 кбит/с, 680x508, 25 к/с, crf=18
Аудио 1: Русский ЛО (Erogg) (AC3, 2 ch, 192 Кбит/с)
Аудио 2: Русский ЛО (Andi) (AC3, 2 ch, 192 Кбит/с)
Аудио 3: Английский (AC3, 2 ch, 192 Кбит/с)
Субтитры : Русские (Mimoid)
Работа над релизом:
Рип с самопального ДВД с кассеты - kosmoaelita, SimpleStab
Русская озвучка от Erogg - для westerns.ru
Русская озвучка от Andi - для videodemons.com
Работа по синхрону русских дорожек - kosmoaelita



Пример русской озвучки от Erogg

Дополнительно

слоган «In the battle for life you have to kill or be killed»
Also Known As (AKA)
Clash of the Warlords
Bulgaria (Bulgarian title) Сблъсъкът на диктаторите
Greece (video title) Kyriarhos tou polemou
Greece (video title) O ektelestis

Знаете ли вы, что...

MediaInfo

Общее
Уникальный идентификатор : 183772549954841978330395134277871559805 (0x8A414E41CB5E10E5B9E5BF9C3E45647D)
Полное имя : N:\Clash of the Warlords 1985.x264.VHSRip.2xRus.kosmoaelita.mkv
Формат : Matroska
Версия формата : Version 4 / Version 2
Размер файла : 1,29 Гбайт
Продолжительность : 1 ч. 12 м.
Общий поток : 2534 Кбит/сек
Название фильма : Битва вождей / Clash of the Warlords / Mad Warrior / VHS / Релиз kosmoaelita
Дата кодирования : UTC 2016-10-16 01:19:01
Программа кодирования : mkvmerge v6.6.0 ('The Edge Of The In Between') built on Dec 1 2013 17:55:00
Библиотека кодирования : libebml v1.3.0 + libmatroska v1.4.1
Attachments : poster.jpg
Видео
Идентификатор : 1
Формат : AVC
Формат/Информация : Advanced Video Codec
Профиль формата : High@L4.1
Параметр CABAC формата : Да
Параметр ReFrames формата : 8 кадров
Идентификатор кодека : V_MPEG4/ISO/AVC
Продолжительность : 1 ч. 12 м.
Битрейт : 1907 Кбит/сек
Ширина : 680 пикселей
Высота : 508 пикселей
Соотношение сторон : 4:3
Режим частоты кадров : Постоянный
Частота кадров : 25,000 кадров/сек
Цветовое пространство : YUV
Субдискретизация насыщенности : 4:2:0
Битовая глубина : 8 бит
Тип развёртки : Прогрессивная
Бит/(Пиксели*Кадры) : 0.221
Размер потока : 994 Мбайт (75%)
Заголовок : kosmoaelita
Библиотека кодирования : x264 core 130 r2273 b3065e6
Настройки программы : cabac=1 / ref=8 / deblock=1:-3:-3 / analyse=0x3:0x133 / me=umh / subme=10 / psy=1 / psy_rd=0.99:0.14 / mixed_ref=1 / me_range=24 / chroma_me=1 / trellis=2 / 8x8dct=1 / cqm=0 / deadzone=21,11 / fast_pskip=1 / chroma_qp_offset=-3 / threads=6 / lookahead_threads=1 / sliced_threads=0 / nr=0 / decimate=1 / interlaced=0 / bluray_compat=0 / constrained_intra=0 / bframes=8 / b_pyramid=2 / b_adapt=2 / b_bias=0 / direct=1 / weightb=1 / open_gop=0 / weightp=2 / keyint=210 / keyint_min=21 / scenecut=40 / intra_refresh=0 / rc_lookahead=80 / rc=crf / mbtree=1 / crf=18.0 / qcomp=0.65 / qpmin=0 / qpmax=69 / qpstep=4 / ip_ratio=1.25 / aq=1:0.90
Default : Да
Forced : Нет
Statistics Tags Issue : mkvmerge v7.8.0 ('River Man') 32bit built on Mar 27 2015 16:18:02 2016-10-16 00:49:40 / mkvmerge v6.6.0 ('The Edge Of The In Between') built on Dec 1 2013 17:55:00 2016-10-16 01:19:01
FromStats_BitRate : 1953585
FromStats_Duration : 01:12:52.200000000
FromStats_FrameCount : 109305
FromStats_StreamSize : 1067683538
Аудио #1
Идентификатор : 2
Формат : AC-3
Формат/Информация : Audio Coding 3
Расширение режима : CM (complete main)
Параметр Endianness формата : Big
Идентификатор кодека : A_AC3
Продолжительность : 1 ч. 12 м.
Вид битрейта : Постоянный
Битрейт : 192 Кбит/сек
Каналы : 2 канала
Расположение каналов : Front: L R
Частота : 48,0 КГц
Частота кадров : 31,250 кадров/сек (1536 spf)
Метод сжатия : С потерями
Размер потока : 100 Мбайт (8%)
Заголовок : Русский ЛО (Erogg) по субтитрам от Mimoid
Язык : Russian
Default : Да
Forced : Нет
Аудио #2
Идентификатор : 3
Формат : AC-3
Формат/Информация : Audio Coding 3
Расширение режима : CM (complete main)
Параметр Endianness формата : Big
Идентификатор кодека : A_AC3
Продолжительность : 1 ч. 12 м.
Вид битрейта : Постоянный
Битрейт : 192 Кбит/сек
Каналы : 2 канала
Расположение каналов : Front: L R
Частота : 48,0 КГц
Частота кадров : 31,250 кадров/сек (1536 spf)
Метод сжатия : С потерями
Размер потока : 100 Мбайт (8%)
Заголовок : Русский ЛО (Andi) по субтитрам от Mimoid
Язык : Russian
Default : Нет
Forced : Нет
Аудио #3
Идентификатор : 4
Формат : AC-3
Формат/Информация : Audio Coding 3
Расширение режима : CM (complete main)
Параметр Endianness формата : Big
Идентификатор кодека : A_AC3
Продолжительность : 1 ч. 12 м.
Вид битрейта : Постоянный
Битрейт : 192 Кбит/сек
Каналы : 2 канала
Расположение каналов : Front: L R
Частота : 48,0 КГц
Частота кадров : 31,250 кадров/сек (1536 spf)
Метод сжатия : С потерями
Размер потока : 100 Мбайт (8%)
Язык : English
Default : Нет
Forced : Нет
Текст #1
Идентификатор : 5
Формат : VobSub
Режим смешивания : zlib
Идентификатор кодека : S_VOBSUB
Идентификатор кодека/Информация : Picture based subtitle format used on DVDs
Заголовок : Русский (Mimoid) VobSub
Язык : Russian
Default : Да
Forced : Нет
Текст #2
Идентификатор : 6
Формат : VobSub
Режим смешивания : zlib
Идентификатор кодека : S_VOBSUB
Идентификатор кодека/Информация : Picture based subtitle format used on DVDs
Заголовок : Русский (Mimoid) VobSub
Язык : Russian
Default : Нет
Forced : Нет
Текст #3
Идентификатор : 7
Формат : UTF-8
Идентификатор кодека : S_TEXT/UTF8
Идентификатор кодека/Информация : UTF-8 Plain Text
Заголовок : Русский (Mimoid) srt
Язык : Russian
Default : Нет
Forced : Нет

Пример субтитров

1
00:00:25,990 --> 00:00:30,920
"БИТВА ВОЖДЕЙ"
[Clash of the Warlords, 1985г]
2
00:02:27,320 --> 00:02:31,050
Убей его! Убей! Убей его!
3
00:02:46,910 --> 00:02:49,160
Я абсолютно не удовлетворен.
4
00:02:50,210 --> 00:02:52,310
Чего я на самом деле хочу -
5
00:02:52,400 --> 00:02:54,750
...чтобы ты дрался
со своим лучшим другом.
-----------------------------
307
01:10:24,250 --> 01:10:28,360
Тебе не о чем волноваться.
Я ценю все, что ты для нас сделал.
308
01:10:32,960 --> 01:10:34,430
Ты вернешься?
309
01:10:37,130 --> 01:10:38,820
Ты правда сумасшедший.
310
01:10:39,300 --> 01:10:41,690
Сумасшедший, как Безумный воин.
311
01:11:33,510 --> 01:11:38,410
Тайминг - Eazin, перевод - Мимоид
2011г.

Скриншоты








Скринлист

cd Рип дополнительно залит на ОБЛАКО cd2
Clash of the Warlords 1985.x264.VHSRip.2xRus.kosmoaelita.mkv.torrent
Torrent: Registered [ 2016-10-16 04:22 ]

Download .torrent

Download

52 KB

Status: checked
Completed: 0 times
Size: 1.29 GB
 


Last edited by kosmoaelita on 2016-10-16 20:15; edited 4 times in total
[Profile] [PM]

Guest

Gender: Unknown

Post 16-Oct-2016 05:18 (after 2 hours 4 minutes)

[Quote]

Хорошее кино. Считаю эту свою аннотацию шедевром.)) Помнится, очень смеялся, когда её сочинял в таком возвышенном тоне.)
 

CROM@G

Gender: Male

Longevity: 5 years 2 months

Posts: 3437

Location: Прибалтика

Post 16-Oct-2016 09:28 (after 4 hours)

[Quote]

punk and destroy, Братья ,пора вам книгу с собственными аннотациями издавать . tema
[Profile] [PM]

AlexNT60

Gender: Male

Longevity: 7 years 10 months

Posts: 137

Location: СПб

Post 16-Oct-2016 18:15 (after 8 hours)

[Quote]

вообще-то, это вроде второй фильм.
Первый:
W is War - http://www.imdb.com/title/tt0220843
[Profile] [PM]
Display posts:    
Reply to topic

Current time is: 06-Dec 00:32

All times are UTC + 3



You cannot post new topics in this forum
You cannot reply to topics in this forum
You cannot edit your posts in this forum
You cannot delete your posts in this forum
You cannot vote in polls in this forum
You cannot attach files in this forum
You can download files in this forum