Охотники на привидений (мульт) / Ghostbusters (Том Татаранович, Том Сито) [1986, США, фантастика, приключения, DVDRip] [Полнометражка] АО (Трамвай фильм)

Ответить на тему
Статистика раздачи
Размер:  910 MB   |    Зарегистрирован:  2 года 2 месяца   |    Скачан:  8 раз

Сидов:

Пользователь ULR Отдано Скачано Отдача Загрузка
evilbuch 0 0- 0- 0- 0-
показаны данные только за текущую сессию
 
   
 
 
 
Автор Сообщение

Трамвай-фильм ®

Пол: Мужской

Стаж: 4 года 4 месяца

Сообщений: 1346

Откуда: Россия

Создавать темы 15-Окт-2016 21:35

[Цитировать]

Охотники на привидений / Ghostbusters / Полнометражка (мульт)
Страна: США
Жанр: фантастика, приключения
Год выпуска: 1986
Продолжительность: 01:39:42
Перевод: Авторский (одноголосый) Трамвай фильм
Режиссер: Том Татаранович, Том Сито
Описание: Сыновья первых в мире охотников на привидений и их компаньоны сражаются с повелителем злых духов Первозлобом и его приспешниками.
Доп. информация: Фильм основан на шоу телестудии Фильмейшн 1975 года "Охотники на привидений" (не путать с Охотниками с Биллом Мюррейем 1984 года)
Хотелось бы обратить внимание на некоторые особенности перевода, местами он адаптивный, например снаряжение охотников Ghost Pack и Ghost Gummer переведены как "рюкзак" и "резиномет", т.е. чем они по сути и являются, а не призрачный пакет и призрачный резинщик. Аналогично и с именами, местами и другими предметами, где русское название в оригинале не очень благозвучно.
Сериал, 65 серий из 65.
Качество видео: DVDRip
Формат видео: AVI
Видео: Xvid, 480x352, 29.97fps, 1 089 кб/с
Аудио: MP3, 44100Hz, stereo, 128 кб/с

MediaInfo

Video
ID : 0
Format : MPEG-4 Visual
Codec ID : XVID
Codec ID/Hint : XviD
Duration : 1h 39mn
Bit rate : 1 089 Kbps
Width : 480 pixels
Height : 352 pixels
Display aspect ratio : 4:3
Frame rate : 29.970 fps
Color space : YUV
Chroma subsampling : 4:2:0
Compression mode : Lossy
Bits/(Pixel*Frame) : 0.215
Stream size : 777 MiB (85%)
Audio
ID : 1
Format : MPEG Audio
Codec ID : 55
Codec ID/Hint : MP3
Duration : 1h 39mn
Bit rate : 128 Kbps
Channel(s) : 2 channels
Sampling rate : 44.1 KHz
Compression mode : Lossy
Stream size : 91.3 MiB (10%)
Alignment : Aligned on interleaves

Скриншоты



Скринлист

cd Рип дополнительно залит на ОБЛАКО cd2
Ghost.Busters.1986.Movie.torrent
Торрент: Зарегистрирован [ 2016-10-15 21:35 ]

Скачать .torrent

Скачать

18 KB

Статус: проверено
Скачан: 8 раз
Размер: 910 MB
 
[Профиль] [ЛС]
Показать сообщения:    
Ответить на тему

Текущее время: 16-Дек 09:15

Часовой пояс: UTC + 3:30



Вы не можете начинать темы
Вы не можете отвечать на сообщения
Вы не можете редактировать свои сообщения
Вы не можете удалять свои сообщения
Вы не можете голосовать в опросах
Вы не можете прикреплять файлы к сообщениям
Вы можете скачивать файлы