Аквила (сериал) / Aquila (Дэвид Белл) [1997, Великобритания, VHSRip] (СТ : kosmoaelita-karlivanovich)

Reply to topic
 
Author Message

kosmoaelita ®

Gender: Male

Longevity: 6 years 8 months

Posts: 965

Location: Украина

Post 08-Oct-2016 11:30

[Quote]

Аквила / Aquila
Страна: Великобритания, BBC Television Centre
Год выпуска: 1997-1998
Продолжительность: 00:21:48
Перевод: Субтитры kosmoaelita-karlivanovich
Режиссер: Дэвид Белл
В ролях:
Ben Brooks Ben Brooks ...Tom Baxter (13 episodes, 1997-1998)
Craig Vye Craig Vye ...Geoff Reynolds (13 episodes, 1997-1998)
Sallyanne Law Sallyanne Law ...Mrs. Baxter / ... (13 episodes, 1997-1998)
Hilary Mason Hilary Mason ...Mrs Murray / ... (12 episodes, 1997-1998)
Vivien Parry Vivien Parry ...Mrs Reynolds / ... (12 episodes, 1997-1998)
Thomas Wheatley Thomas Wheatley ...Professor Hare (7 episodes, 1997-1998)
Alastair Galbraith Alastair Galbraith ...Mr Urquart / ... (6 episodes, 1997-1998)
Constance Barrie Constance Barrie ...Alison (6 episodes, 1997-1998)
Peter Waddington Peter Waddington ...Mr. Wharton (6 episodes, 1997-1998)
Dale Rapley Dale Rapley ...Alan Pritchard (6 episodes, 1998)
Описание: Британские подростки находят в заброшенной пещере космический челнок пришельцев способный путешествовать в ближнем космосе и доставить их на материнский межзвездный корабль.
https://en.wikipedia.org/wiki/Aquila_(TV_series)
Список серий:
1 The Eagle Has Landed - Орел приземлился
2 Homeward Bound - Дорога домой
3
4
5
6
7
8
9
10
11
12
13
Релиз

Качество: VHSRip
Формат: MKV
Видео: x264, 1778 кбит/с, 704x528, 25 к/с
Аудио 2: Английский (AC3, 2 ch, 192 Кбит/с)
Субтитры : Русские ()
Работа над релизом:
Релиз kosmoaelita.
Рипы с самопальных ДВД - kosmoaelita.
Перевод на слух с англ. по заказу kosmoaelita - karlivanovich



Пример русских субтитров

Дополнительно

Знаете ли вы, что...

Отзывы

Рецензия

Приключенческий сериал о двух мальчиках, нашедших в пещере скелет римского центуриона. В захоронении, под скелетом, оказалось необычное устройство – летательный аппарат с невероятными особенностями. Вскоре пещера становится предметом археологических раскопок, но ребята никому не сообщают о своей находке. Благодаря аппарату они могут становиться невидимыми и, методом проб и ошибок, выясняют на что он способен и отправляются в удивительные путешествия.

MediaInfo

Общее
Уникальный идентификатор : 244723814979531315668978771002722784415 (0xB81C17A36C1A8607815C8B71F08E949F)
Полное имя : N:\Aquila s1e1x7 The Eagle Has Landed 1997.x264.VHSRip.kosmoaelita.mkv
Формат : Matroska
Версия формата : Version 4 / Version 2
Размер файла : 334 Мбайт
Продолжительность : 21 м.
Общий поток : 2140 Кбит/сек
Название фильма : Aquila s1e1x7 The Eagle Has Landed - Орел приземлился / 1997 / Релиз kosmoaelita.com
Дата кодирования : UTC 2016-10-08 15:48:24
Программа кодирования : mkvmerge v6.6.0 ('The Edge Of The In Between') built on Dec 1 2013 17:55:00
Библиотека кодирования : libebml v1.3.0 + libmatroska v1.4.1
Attachments : poster aquilla.jpg / aquila 1.1of7.mkv.encoding.log
Видео
Идентификатор : 1
Формат : AVC
Формат/Информация : Advanced Video Codec
Профиль формата : High@L4.1
Параметр CABAC формата : Да
Параметр ReFrames формата : 8 кадров
Идентификатор кодека : V_MPEG4/ISO/AVC
Продолжительность : 21 м.
Битрейт : 1713 Кбит/сек
Номинальный битрейт : 1355 Кбит/сек
Ширина : 704 пикселя
Высота : 528 пикселей
Соотношение сторон : 4:3
Режим частоты кадров : Постоянный
Частота кадров : 25,000 кадров/сек
Цветовое пространство : YUV
Субдискретизация насыщенности : 4:2:0
Битовая глубина : 8 бит
Тип развёртки : Прогрессивная
Бит/(Пиксели*Кадры) : 0.184
Размер потока : 267 Мбайт (80%)
Заголовок : kosmoaelita
Библиотека кодирования : x264 core 130 r2273 b3065e6
Настройки программы : cabac=1 / ref=8 / deblock=1:-2:-2 / analyse=0x3:0x133 / me=umh / subme=11 / psy=1 / psy_rd=0.99:0.14 / mixed_ref=1 / me_range=24 / chroma_me=1 / trellis=2 / 8x8dct=1 / cqm=0 / deadzone=21,11 / fast_pskip=1 / chroma_qp_offset=-3 / threads=6 / lookahead_threads=1 / sliced_threads=0 / nr=0 / decimate=1 / interlaced=0 / bluray_compat=0 / constrained_intra=0 / bframes=8 / b_pyramid=2 / b_adapt=2 / b_bias=0 / direct=3 / weightb=1 / open_gop=0 / weightp=2 / keyint=210 / keyint_min=21 / scenecut=40 / intra_refresh=0 / rc_lookahead=80 / rc=2pass / mbtree=1 / bitrate=1355 / ratetol=1.0 / qcomp=0.65 / qpmin=0 / qpmax=69 / qpstep=4 / cplxblur=20.0 / qblur=0.5 / ip_ratio=1.25 / aq=1:0.90
Default : Да
Forced : Нет
Цветовой диапазон : Limited
Основные цвета : BT.601 NTSC
Характеристики трансфера : BT.601
Коэффициенты матрицы : BT.601
Statistics Tags Issue : mkvmerge v7.8.0 ('River Man') 32bit built on Mar 27 2015 16:18:02 2016-10-08 05:08:55 / mkvmerge v6.6.0 ('The Edge Of The In Between') built on Dec 1 2013 17:55:00 2016-10-08 15:48:24
FromStats_BitRate : 1297235
FromStats_Duration : 00:00:20.320000000
FromStats_FrameCount : 508
FromStats_StreamSize : 3294979
Аудио #1
Идентификатор : 2
Формат : AC-3
Формат/Информация : Audio Coding 3
Расширение режима : CM (complete main)
Параметр Endianness формата : Big
Идентификатор кодека : A_AC3
Продолжительность : 21 м.
Вид битрейта : Постоянный
Битрейт : 192 Кбит/сек
Каналы : 2 канала
Расположение каналов : Front: L R
Частота : 48,0 КГц
Частота кадров : 31,250 кадров/сек (1536 spf)
Метод сжатия : С потерями
Размер потока : 29,9 Мбайт (9%)
Язык : Russian
Default : Да
Forced : Нет
Аудио #2
Идентификатор : 3
Формат : AC-3
Формат/Информация : Audio Coding 3
Расширение режима : CM (complete main)
Параметр Endianness формата : Big
Идентификатор кодека : A_AC3
Продолжительность : 21 м.
Вид битрейта : Постоянный
Битрейт : 192 Кбит/сек
Каналы : 2 канала
Расположение каналов : Front: L R
Частота : 48,0 КГц
Частота кадров : 31,250 кадров/сек (1536 spf)
Метод сжатия : С потерями
Размер потока : 29,9 Мбайт (9%)
Язык : English
Default : Нет
Forced : Нет
Текст #1
Идентификатор : 4
Формат : VobSub
Режим смешивания : zlib
Идентификатор кодека : S_VOBSUB
Идентификатор кодека/Информация : Picture based subtitle format used on DVDs
Заголовок : Русский (kosmoaelita-karlivanovich) VobSub - перевод на слух с англ.
Язык : Russian
Default : Да
Forced : Нет
Текст #2
Идентификатор : 5
Формат : VobSub
Режим смешивания : zlib
Идентификатор кодека : S_VOBSUB
Идентификатор кодека/Информация : Picture based subtitle format used on DVDs
Заголовок : Русский (kosmoaelita-karlivanovich) VobSub - перевод на слух с англ.
Язык : Russian
Default : Нет
Forced : Нет
Текст #3
Идентификатор : 6
Формат : UTF-8
Идентификатор кодека : S_TEXT/UTF8
Идентификатор кодека/Информация : UTF-8 Plain Text
Заголовок : Русский (kosmoaelita-karlivanovich) srt - перевод на слух с англ.
Язык : Russian
Default : Нет
Forced : Нет

Пример субтитров

1
00:00:07,180 --> 00:00:11,740
"Аквила"
[Aquila]
2
00:00:29,300 --> 00:00:32,410
в главных ролях
БЕН БРУКС и КРЭЙГ ВИ
3
00:00:43,110 --> 00:00:49,150
Сезон 1 Эпизод 1х7
"ОРЁЛ ПРИЗЕМЛИЛСЯ"
[The Eagle Has Landed, 1997г]
4
00:00:53,299 --> 00:00:57,011
Перевод karlivanovich
для сайта kosmoaelita.com
5
00:01:08,770 --> 00:01:10,980
"Ферма Пенсильвания"
6
00:01:31,080 --> 00:01:32,810
Что ж, копать нору
дело, вроде, не опасное.
7
00:01:32,940 --> 00:01:34,940
Что они там делают?
---------------------------
301
00:20:42,050 --> 00:20:44,530
Подумал, что так будет
интереснее.
302
00:20:44,600 --> 00:20:47,990
Интересно? Так можно свихнуться.
303
00:20:48,250 --> 00:20:51,490
Переворачивай обратно.
304
00:20:51,670 --> 00:20:54,070
- Всё готово.
- Не готово!
305
00:21:01,230 --> 00:21:06,020
Перевод на слух с англ.
по заказу kosmoaelita: karlivanovich
октябрь, 2016 года

Скриншоты






Скринлист

Файл дополнительно залит на ОБЛАКО


Last edited by kosmoaelita on 2016-10-29 01:15; edited 10 times in total
[Profile] [PM]

Kevin Miller

Gender: Unknown

Post 10-Aug-2018 23:16 (after 1 year 10 months)

[Quote]

Прикольный фильм. Вот бы найти такой летательный аппарат, можно было бы нелегально путешествовать по всему миру. Захотел, купил бы себе нужную вещь в другой стране, а пошлины нашей таможне не заплатил. Захотел, сбежал от наших военкоматов и правоохранительных органов на другую планету, интерпол был бы бессилен. Даже хлеб купить в Америке, живя в России и других странах - не проблема.
 
Display posts:    
Reply to topic

Current time is: 27-May 06:21

All times are UTC + 3



You cannot post new topics in this forum
You cannot reply to topics in this forum
You cannot edit your posts in this forum
You cannot delete your posts in this forum
You cannot vote in polls in this forum
You cannot attach files in this forum
You cannot download files in this forum