Американский киборг: Стальной воин / American Cyborg: Steel Warrior / American Cyborg Steel Warrior (Боаз Дэвидсон / Boaz Davidson) [1993, США, фантастика, боевик, ПА, BDRip-720p] ПМ, АО (Ю.Живов)

Reply to topic
 
Author Message

AlexNT60 ®

Gender: Male

Longevity: 7 years 7 months

Posts: 137

Location: СПб

Post 03-Oct-2016 23:17

[Quote]

Американский киборг: Стальной воин / American Cyborg: Steel Warrior
Страна: США
Жанр: фантастика, боевик, ПА
Год выпуска: 1993
Продолжительность: 01:34:34
Перевод 1: Профессиональный (многоголосый)
Перевод 2: Авторский (одноголосый) Ю.Живов
Режиссер: Боаз Дэвидсон / Boaz Davidson
В ролях:
Joe Lara ... Austin
Nicole Hansen ... Mary
John Saint Ryan ... Cyborg (as John Ryan)
Joseph Shiloach ... Akmir
Uri Gavriel ... Leech
Helen Lesnick ... Carp (as Hellen Lesnick)
Andrea Litt ... Arlene
Jack Widerker ... Dr. Buckley
Kevin Patterson ... Runner
P.C. Frieberg ... Old Man
Nicole Berger ... Hooker
Alon Nashman ... Scientist (as Allen Nashman)
Jack Adalist ... Thug
David Milton-Jones ... Paramedic
Eric Storch ... Scavenger
Описание: Через 17 лет после ядерной войны все люди, оставшиеся в живых, стали узниками компьютерной СИСТЕМЫ, наделенной искусственным разумом. Неспособные к продолжению рода, люди были обречены на медленное вымирание под бдительным присмотром слуг СИСТЕМЫ — киборгов. Группа повстанцев направляет единственную здоровую женщину в порт, чтобы переправить ее в Европу, пытаясь там воссоздать человеческую жизнь. Но слишком тяжел путь от центра города, кишащего бандами радиоактивных каннибалов, истеричных полупроституток и киборгов, до порта — единственной надежды на возрождение.
Качество видео: BDRip-720p
Формат видео: MKV
Видео: x264, 1280x736, 5 442 Kbps, 23.976 к/с
Аудио: Русский MVO (AC3, 2 ch, 192 Кбит/с)
Аудио 2: Русский AVO (Ю.Живов) (AC3, 2 ch, 192 Кбит/с)
Аудио 3: Английский (AC3, 5.1 ch, 448 Кбит/с)


Трейлер

Дополнительно

Also Known As (AKA)
(original title) American Cyborg: Steel Warrior
Argentina Steel Warrior
Bulgaria (Bulgarian title) Американски киборг: Стоманеният воин
Canada (French title) American cyborg: le guerrier d'acier
Finland American Cyborg - tappajarobotti
Germany American Cyborg
Greece (video title) American Cyborg 3
Hungary Amerikai kiborg
Italy Il guerriero d'acciaio
Mexico (alternative title) Los exterminadores
Mexico Cyborg 2: guerrero de acero
Mexico (original subtitled version) Guerrero de acero
Poland Amerykanski cyborg
Portugal Cyborg Americano
Russia Американский киборг: Стальной воин
Spain American cyborg: El guerrero de acero

Знаете ли вы, что...

Отзывы

Рецензия

MediaInfo

General
Unique ID : 226928046849988184442151738490240262870 (0xAAB8C08754736382A452CD4FA32E62D6)
Complete name : D:\BD\123\!G\American.Cyborg.Steel.Warrior.1993.720p.BluRay.x264.mkv
Format : Matroska
Format version : Version 4 / Version 2
File size : 4.23 GiB
Duration : 1h 34mn
Overall bit rate : 6 401 Kbps
Movie name : American Cyborg - Steel Warrior (1993)
Encoded date : UTC 2016-09-14 01:05:08
Writing application : mkvmerge v9.0.1 ('Obstacles') 64bit
Writing library : libebml v1.3.3 + libmatroska v1.4.4
Attachements : Cover.jpg
DURATION : 01:34:34.848000000
NUMBER_OF_FRAMES : 177339
NUMBER_OF_BYTES : 317740288
_STATISTICS_WRITING_APP : mkvmerge v9.0.1 ('Obstacles') 64bit
_STATISTICS_WRITING_DATE_UTC : 2016-09-14 01:05:08
_STATISTICS_TAGS : BPS DURATION NUMBER_OF_FRAMES NUMBER_OF_BYTES
Video
ID : 1
Format : AVC
Format/Info : Advanced Video Codec
Format profile : High@L4.1
Format settings, CABAC : Yes
Format settings, ReFrames : 3 frames
Codec ID : V_MPEG4/ISO/AVC
Duration : 1h 34mn
Bit rate : 5 442 Kbps
Width : 1 280 pixels
Height : 736 pixels
Display aspect ratio : 1.739
Frame rate mode : Constant
Frame rate : 23.976 fps
Color space : YUV
Chroma subsampling : 4:2:0
Bit depth : 8 bits
Scan type : Progressive
Bits/(Pixel*Frame) : 0.241
Stream size : 3.59 GiB (85%)
Writing library : x264 core 148 r2638 7599210
Encoding settings : cabac=1 / ref=2 / deblock=1:-1:-1 / analyse=0x3:0x133 / me=umh / subme=7 / psy=1 / psy_rd=1.00:0.15 / mixed_ref=1 / me_range=16 / chroma_me=1 / trellis=2 / 8x8dct=1 / cqm=0 / deadzone=21,11 / fast_pskip=1 / chroma_qp_offset=-3 / threads=12 / lookahead_threads=2 / sliced_threads=0 / nr=0 / decimate=1 / interlaced=0 / bluray_compat=0 / constrained_intra=0 / bframes=3 / b_pyramid=1 / b_adapt=2 / b_bias=0 / direct=1 / weightb=1 / open_gop=0 / weightp=1 / keyint=240 / keyint_min=23 / scenecut=40 / intra_refresh=0 / rc_lookahead=30 / rc=crf / mbtree=1 / crf=18.0 / qcomp=0.60 / qpmin=0 / qpmax=69 / qpstep=4 / ip_ratio=1.40 / aq=1:1.00
Language : English
Default : Yes
Forced : No
DURATION : 01:34:33.585000000
NUMBER_OF_FRAMES : 136030
NUMBER_OF_BYTES : 3948171278
_STATISTICS_WRITING_APP : mkvmerge v9.0.1 ('Obstacles') 64bit
_STATISTICS_WRITING_DATE_UTC : 2016-09-14 01:05:08
_STATISTICS_TAGS : BPS DURATION NUMBER_OF_FRAMES NUMBER_OF_BYTES
Audio #1
ID : 2
Format : AC-3
Format/Info : Audio Coding 3
Mode extension : CM (complete main)
Format settings, Endianness : Big
Codec ID : A_AC3
Duration : 1h 34mn
Bit rate mode : Constant
Bit rate : 192 Kbps
Channel(s) : 2 channels
Channel positions : Front: L R
Sampling rate : 48.0 KHz
Bit depth : 16 bits
Compression mode : Lossy
Stream size : 130 MiB (3%)
Title : MVO
Language : Russian
Default : Yes
Forced : No
Audio #2
ID : 3
Format : AC-3
Format/Info : Audio Coding 3
Mode extension : CM (complete main)
Format settings, Endianness : Big
Codec ID : A_AC3
Duration : 1h 34mn
Bit rate mode : Constant
Bit rate : 192 Kbps
Channel(s) : 2 channels
Channel positions : Front: L R
Sampling rate : 48.0 KHz
Bit depth : 16 bits
Compression mode : Lossy
Stream size : 130 MiB (3%)
Title : AVO (Ю.Живов)
Language : Russian
Default : No
Forced : No
Audio #3
ID : 4
Format : AC-3
Format/Info : Audio Coding 3
Mode extension : CM (complete main)
Format settings, Endianness : Big
Codec ID : A_AC3
Duration : 1h 34mn
Bit rate mode : Constant
Bit rate : 448 Kbps
Channel(s) : 6 channels
Channel positions : Front: L C R, Side: L R, LFE
Sampling rate : 48.0 KHz
Bit depth : 16 bits
Compression mode : Lossy
Stream size : 303 MiB (7%)
Language : English
Default : No
Forced : No

Скриншоты





Скринлист

cd Рип дополнительно залит на ОБЛАКО cd2


Last edited by AlexNT60 on 2019-12-09 08:50; edited 1 time in total
[Profile] [PM]

kosmoaelita

Gender: Male

Longevity: 8 years

Posts: 1651

Post 04-Oct-2016 02:51 (after 3 hours)

[Quote]

Жаль, что без реставрации.
Да и еще. как мне кажется. немного пропорции нарушены смайлик-
http://screenshotcomparison.com/comparison/186693
[Profile] [PM]

AlexNT60 ®

Gender: Male

Longevity: 7 years 7 months

Posts: 137

Location: СПб

Post 04-Oct-2016 06:49 (after 3 hours)

[Quote]

Рип не мой.
Здесь, кстати, 1080 можно взять:
http://www.movie-blog.org/2016/06/05/american-cybor...ray-x264-leethd/
[Profile] [PM]

Susanin

Gender: Male

Longevity: 6 years 5 months

Posts: 848

Post 05-Oct-2016 12:07 (after 1 day 5 hours)

[Quote]

2 раза скачивал архивы, Рар пишет, что первый архив испорчен и не распаковывает.
[Profile] [PM]

AlexNT60 ®

Gender: Male

Longevity: 7 years 7 months

Posts: 137

Location: СПб

Post 05-Oct-2016 15:12 (after 3 hours)

[Quote]

Ну тады BD25 есть на Cinematik.
1080 есть еще здесь - http://rarbg.com/torrent/wzefl5n
Но здесь можно долго сидов ждать...
[Profile] [PM]

kosmoaelita

Gender: Male

Longevity: 8 years

Posts: 1651

Post 05-Oct-2016 18:47 (after 3 hours)

[Quote]

Єто ничего не изменит. Просто оригинал нереставрированній
[Profile] [PM]
Display posts:    
Reply to topic

Current time is: 29-Sep 17:45

All times are UTC + 3



You cannot post new topics in this forum
You cannot reply to topics in this forum
You cannot edit your posts in this forum
You cannot delete your posts in this forum
You cannot vote in polls in this forum
You cannot attach files in this forum
You cannot download files in this forum