Кинотюрьма будущего / Кинотеатр без возврата / Dead End Drive-In (Брайан Тренчард-Смит / Brian Trenchard-Smith) [BDRip-720p] АО (В.Котов)

Reply to topic
DL-List and Torrent activity
Size:  4.22 GB   |    Registered:  3 years 9 months   |    Completed:  0 times

Seeder not seen: 1 year 11 months

 
   
 
 
 
Author Message

AlexNT60 ®

Gender: Male

Longevity: 7 years 5 months

Posts: 136

Location: СПб

Post 28-Sep-2016 10:16

[Quote]

Кинотюрьма будущего / Кинотеатр без возврата / Dead End Drive-In
Страна: Австралия, New South Wales Film Corp., Springvale Productions
Жанр: фантастика, боевик, триллер, драма
Год выпуска: 1986
Продолжительность: 01:26:59
Перевод: Авторский (одноголосый) В.Котов
Режиссер: Брайан Тренчард-Смит / Brian Trenchard-Smith
В ролях: Нед Мэннинг, Натали МакКарри, Питер Уитфорд, Вилбур Вильде, Дэйв Гибсон
Описание: Действие фильма происходит в будущем, правда, имеющим мрачное сходство с нашим временем. Герой фильма по кличке «Краб» и его подружка Кармен собираются немного поразвлечься. Они попадают вовсе не в парк развлечений.
Это вроде концентрационного лагеря для отщепенцев — слабых, безработных и недееспособных. Запертый в «NTупике» Краб борется за свободу, проявляя незаурядную силу воли, до того ему не свойственную…

Качество видео: BDRip-720p
Формат видео: MKV
Видео: x264, 1280x544, 23.976 к/с
Аудио: Русский AVO (В.Котов) (AC3, 2 ch, 192 Кбит/с)
Аудио 2: Английский (AC3, 2 ch, 192 Кбит/с)
Работа над релизом:




Пример перевода Котова:

Дополнительно

слоган «There's a party every day, a movie every night, and all the junk food you can eat. What more can a kid want... except to get out»
рейтинг MPAA рейтинг R лицам до 17 лет обязательно присутствие взрослого
Формат изображения: 2.35 : 1
Формат копии: 35 mm
Формат съёмок: 35 mm (2-perf)
Изображение: цветное
Язык: английский
Also Known As (AKA)
(original title) Dead End Drive-In
Brazil (video box title) Drive-in da Morte
Spain Star Drive-In: Campo de Exterminio
France Le Drive in de l'enfer
Greece (video title) Eisodos thanatou
Italy Drive-in 2000
Soviet Union (Russian title) Кинотюрьма будущего
USA (short title) Dead End
West Germany Crabs.. die Zukunft sind wir
West Germany (video title) Escalation

Знаете ли вы, что...

Отзывы

ну австралийцы и наснимали бреда, впрочем смотреть довольно занятно. я бы сказал, что фильм негативных эмоций не вызывает, что превосходно уже само по себе. озвучка перевод как всегда у Котова прекрасная.
---------------------------------

Рецензия

Тинэйджеры как пропащее поколение — ни во что не верующие, ничего не признающие, ничего не хочущие менять в своей обывательской уличное анархии, лишь бы беззаветно жить в свое удовольствие, отданные на произвол самим себе. Нигилистическая апатичная пост-апокалиптичная анархия, доведенная до абсолюта как отображение портрета поколения 80-ых.

MediaInfo

General
Unique ID : 187883994428602345854830130933193485972 (0x8D59241EBE68ED65B6042B03E547AE94)
Complete name : D:\BD\123\!G\Dead.End.Drive-In.1986.720p.BluRay.x264.mkv
Format : Matroska
Format version : Version 4 / Version 2
File size : 4.22 GiB
Duration : 1h 27mn
Overall bit rate : 6 935 Kbps
Movie name : Dead End Drive-In (1986)
Encoded date : UTC 2016-09-28 06:33:33
Writing application : mkvmerge v9.0.1 ('Obstacles') 64bit
Writing library : libebml v1.3.3 + libmatroska v1.4.4
Attachements : Cover.png
DURATION : 01:26:59.006000000
NUMBER_OF_FRAMES : 125131
NUMBER_OF_BYTES : 4275415379
_STATISTICS_WRITING_APP : mkvmerge v9.0.1 ('Obstacles') 64bit
_STATISTICS_WRITING_DATE_UTC : 2016-09-28 06:33:33
_STATISTICS_TAGS : BPS DURATION NUMBER_OF_FRAMES NUMBER_OF_BYTES
Video
ID : 3
Format : AVC
Format/Info : Advanced Video Codec
Format profile : High@L4.1
Format settings, CABAC : Yes
Format settings, ReFrames : 5 frames
Codec ID : V_MPEG4/ISO/AVC
Duration : 1h 27mn
Bit rate : 6 555 Kbps
Width : 1 280 pixels
Height : 544 pixels
Display aspect ratio : 2.35:1
Frame rate mode : Constant
Frame rate : 23.976 fps
Color space : YUV
Chroma subsampling : 4:2:0
Bit depth : 8 bits
Scan type : Progressive
Bits/(Pixel*Frame) : 0.393
Stream size : 3.90 GiB (92%)
Writing library : x264 core 148 r2705 3f5ed56
Encoding settings : cabac=1 / ref=5 / deblock=1:-3:-3 / analyse=0x3:0x133 / me=umh / subme=8 / psy=1 / psy_rd=1.00:0.00 / mixed_ref=1 / me_range=16 / chroma_me=1 / trellis=1 / 8x8dct=1 / cqm=0 / deadzone=21,11 / fast_pskip=0 / chroma_qp_offset=-2 / threads=6 / lookahead_threads=1 / sliced_threads=0 / nr=0 / decimate=1 / interlaced=0 / bluray_compat=0 / constrained_intra=0 / bframes=3 / b_pyramid=2 / b_adapt=2 / b_bias=0 / direct=3 / weightb=1 / open_gop=0 / weightp=2 / keyint=240 / keyint_min=23 / scenecut=40 / intra_refresh=0 / rc_lookahead=50 / rc=2pass / mbtree=1 / bitrate=6555 / ratetol=1.0 / qcomp=0.60 / qpmin=0 / qpmax=69 / qpstep=4 / cplxblur=20.0 / qblur=0.5 / vbv_maxrate=62500 / vbv_bufsize=78125 / nal_hrd=none / filler=0 / ip_ratio=1.40 / aq=1:1.00
Default : Yes
Forced : No
Audio #1
ID : 1
Format : AC-3
Format/Info : Audio Coding 3
Mode extension : CM (complete main)
Format settings, Endianness : Big
Codec ID : A_AC3
Duration : 1h 27mn
Bit rate mode : Constant
Bit rate : 192 Kbps
Channel(s) : 2 channels
Channel positions : Front: L R
Sampling rate : 48.0 KHz
Bit depth : 16 bits
Compression mode : Lossy
Stream size : 120 MiB (3%)
Title : AVO (В.Котов)
Language : Russian
Default : Yes
Forced : No
Audio #2
ID : 2
Format : AC-3
Format/Info : Audio Coding 3
Mode extension : CM (complete main)
Format settings, Endianness : Big
Codec ID : A_AC3
Duration : 1h 27mn
Bit rate mode : Constant
Bit rate : 192 Kbps
Channel(s) : 2 channels
Channel positions : Front: L R
Sampling rate : 48.0 KHz
Bit depth : 16 bits
Compression mode : Lossy
Stream size : 120 MiB (3%)
Language : English
Default : No
Forced : No

Скриншот c названием фильма

Скриншоты










Скринлист

cd Рип дополнительно залит на ОБЛАКО cd2
Dead.End.Drive-In.1986.720p.BluRay.x264.mkv.torrent
Torrent: Registered [ 2016-09-28 10:49 ]

Download .torrent

Download

21 KB

Status: checked
Completed: 0 times
Size: 4.22 GB
 
[Profile] [PM]
Display posts:    
Reply to topic

Current time is: 10-Jul 16:40

All times are UTC + 3



You cannot post new topics in this forum
You cannot reply to topics in this forum
You cannot edit your posts in this forum
You cannot delete your posts in this forum
You cannot vote in polls in this forum
You cannot attach files in this forum
You can download files in this forum