Объект Z (e1x6) Метеор / Object Z (Daphne Shadwell) [1965, Великобритания, Фантастика, VHSRip] (СТ : kosmoaelita-karlivanovich)

Ответить на тему
 
Автор Сообщение

admin ®

Пол: Мужской

Стаж: 5 лет 2 месяца

Сообщений: 4748

Откуда: Україна

Создавать темы 26-Сен-2016 20:43

[Цитировать]

Объект Z (e1x6) Метеор / Object Z
Страна: Великобритания, Associated-Rediffusion Television, Rediffusion
Жанр: Фантастика
Год выпуска: 1965
Продолжительность: 00:24:52
Перевод: Субтитры kosmoaelita-karlivanovich
Режиссер: Daphne Shadwell
В ролях:
Margaret Neale ...June Challis (6 episodes, 1965)
Denys Peek ...Robert Duncan (6 episodes, 1965)
Ralph Nossek .. Professor Ramsay / ... (6 episodes, 1965)
Trevor Bannister .. Peter Barry (6 episodes, 1965)
Brandon Brady ...Brian Barclay (6 episodes, 1965)
Celia Bannerman ...Diana Winters (6 episodes, 1965)
William Abney ... Ian Murray (6 episodes, 1965)
Julian Somers ...Sir John Chandos (6 episodes, 1965)
Terence Donovan ...Captain Wade (3 episodes, 1965)
Описание: Астрономы обнаруживают в космосе неопознанный объект размером в шесть миль, который движется курсом на столкновение с Землей.
Какова природа и происхождение объекта Z и можно ли его остановить?

Релиз

Object Z 1965г
S1, Ep1 1The Meteor - Метеор
S1, Ep2 The World in Fear
S1, Ep3 Flight from Danger
S1, Ep4 The Aliens
S1, Ep5 Too Late
S1, Ep6 The Solution
Качество: VHSRip
Формат: MKV
Видео: x264, 2370 кбит/с, 624x464, 23.976 к/с
Аудио 2: Английский (AC3, 2 ch, 192 Кбит/с)
Субтитры : Русские ()
Работа над релизом:
Релиз kosmoaelita.
Видеоряд найден на tv-vault.me.
Перевод на слух с англ. по заказу kosmoaelita - karlivanovich

[kp][/kp]

Пример русских субтитров

Дополнительно

Список эпизодов

Object Z 1965г
S1, Ep1 19 Oct. 1965 The Meteor
S1, Ep2 26 Oct. 1965 The World in Fear
S1, Ep3 2 Nov. 1965 Flight from Danger
S1, Ep4 9 Nov. 1965 The Aliens
S1, Ep5 16 Nov. 1965 Too Late
S1, Ep6 23 Nov. 1965 The Solution
Object Z Return 1966г
S1, Ep1 22 Feb. 1966 The Voice from Space
S1, Ep2 1 Mar. 1966 The Machine
S1, Ep3 8 Mar. 1966 The Monsters
S1, Ep4 15 Mar. 1966 The Menace from the Depths
S1, Ep5 22 Mar. 1966 The Big Freeze
S1, Ep6 29 Mar. 1966 The Eleventh Hour

MediaInfo

Общее
Уникальный идентификатор : 221483636209568210928009337588352497360 (0xA6A0325C07DE92C581CD8BA7BE8F36D0)
Полное имя : N:\Object Z e1x6 The Meteor 1965.XviD.VHSRip.kosmoaelita.mkv
Формат : Matroska
Версия формата : Version 4 / Version 2
Размер файла : 449 Мбайт
Продолжительность : 24 м.
Режим общего битрейта : Переменный
Общий поток : 2526 Кбит/сек
Название фильма : Object Z e1x6 The Meteor 1965 / Релиз kosmoaelita
Дата кодирования : UTC 2016-09-26 22:46:55
Программа кодирования : mkvmerge v6.6.0 ('The Edge Of The In Between') built on Dec 1 2013 17:55:00
Библиотека кодирования : libebml v1.3.0 + libmatroska v1.4.1
Attachments : Poster Object Z .jpg
Видео
Идентификатор : 1
Формат : MPEG-4 Visual
Профиль формата : Advanced Simple@L5
Параметр BVOP формата : 1
Параметр QPel формата : Нет
Параметр GMC формата : Без точки перехода
Параметр матрицы формата : Выборочная
Идентификатор кодека : V_MS/VFW/FOURCC / XVID
Идентификатор кодека/Подсказка : XviD
Продолжительность : 24 м.
Битрейт : 2376 Кбит/сек
Ширина : 624 пикселя
Высота : 464 пикселя
Соотношение сторон : 4:3
Режим частоты кадров : Постоянный
Частота кадров : 25,000 кадров/сек
Цветовое пространство : YUV
Субдискретизация насыщенности : 4:2:0
Битовая глубина : 8 бит
Тип развёртки : Прогрессивная
Метод сжатия : С потерями
Бит/(Пиксели*Кадры) : 0.328
Размер потока : 423 Мбайт (94%)
Заголовок : kosmoaelita
Библиотека кодирования : XviD 1.2.0.dev47 (UTC 2006-11-01)
Default : Да
Forced : Нет
Аудио
Идентификатор : 2
Формат : MPEG Audio
Версия формата : Version 1
Профиль формата : Layer 3
Режим : Joint stereo
Расширение режима : MS Stereo
Идентификатор кодека : A_MPEG/L3
Идентификатор кодека/Подсказка : MP3
Продолжительность : 24 м.
Вид битрейта : Переменный
Битрейт : 99,1 Кбит/сек
Номинальный битрейт : 128 Кбит/сек
Каналы : 2 канала
Частота : 48,0 КГц
Метод сжатия : С потерями
Размер потока : 17,6 Мбайт (4%)
Библиотека кодирования : LAME3.97
Настройки программы : -m j -V 4 -q 2 -lowpass 17 --abr 128
Язык : English
Default : Да
Forced : Нет
Текст #1
Идентификатор : 3
Формат : VobSub
Режим смешивания : zlib
Идентификатор кодека : S_VOBSUB
Идентификатор кодека/Информация : Picture based subtitle format used on DVDs
Заголовок : Русский (kosmoaelita-karlivanovich) VobSub - перевод на слух с англ.
Язык : Russian
Default : Да
Forced : Нет
Текст #2
Идентификатор : 4
Формат : VobSub
Режим смешивания : zlib
Идентификатор кодека : S_VOBSUB
Идентификатор кодека/Информация : Picture based subtitle format used on DVDs
Заголовок : Русский (kosmoaelita-karlivanovich) VobSub - перевод на слух с англ.
Язык : Russian
Default : Нет
Forced : Нет
Текст #3
Идентификатор : 5
Формат : UTF-8
Идентификатор кодека : S_TEXT/UTF8
Идентификатор кодека/Информация : UTF-8 Plain Text
Заголовок : Русский (kosmoaelita-karlivanovich) VobSub - перевод на слух с англ.
Язык : Russian
Default : Нет
Forced : Нет

Пример субтитров

2
00:00:28,526 --> 00:00:32,798
ОБЪЕКТ "Z"
[OBJECT Z]
3
00:00:37,492 --> 00:00:39,826
автор сценария
КРИСТОФЕР МАКМАСТЕР
4
00:00:43,629 --> 00:00:46,741
Эпизод 1х6 "МЕТЕОР"
[The Meteor, 1965г]
5
00:00:51,299 --> 00:00:54,011
Перевод karlivanovich
для сайта kosmoaelita. com
6
00:00:58,126 --> 00:01:02,120
. Он всё ещё тут.
- Да, вижу.
7
00:01:02,414 --> 00:01:04,328
И даже стал ярче.
8
00:01:04,439 --> 00:01:06,439
Роберт, что это, по-твоему?
--------------------------------
373
00:24:01,533 --> 00:24:04,158
Мне только кажется, или
он действительно стал ярче?
374
00:24:04,235 --> 00:24:06,235
Только кажется.
375
00:24:07,576 --> 00:24:10,111
Осталось жить всего шесть недель...
376
00:24:10,876 --> 00:24:14,011
Конец первой серии.
377
00:24:14,424 --> 00:24:19,894
в ролях МАРГАРЕТ НИЛ, ДЕНИС
ПИК, РАЛЬФ НОССЕК и другие
378
00:24:34,424 --> 00:24:38,894
Перевод на слух с англ.
по заказу kosmoaelita: karlivanovich
сентябрь, 2016 года

Скриншоты








Скринлист

[Профиль] [ЛС]
Быстрый ответ

Имя:

            
Для отправки сообщений необходимо включить JavaScript
Показать сообщения:    
Ответить на тему

Текущее время: 24-Ноя 16:39

Часовой пояс: UTC + 3:30



Вы не можете начинать темы
Вы можете отвечать на сообщения
Вы не можете редактировать свои сообщения
Вы не можете удалять свои сообщения
Вы не можете голосовать в опросах
Вы не можете прикреплять файлы к сообщениям
Вы не можете скачивать файлы