Джонни Квест Документальный фильм / Jonny Quest Documentary [2012, США, документальный, SATRip] [фан-фильм] АО (Трамвай фильм)

Reply to topic
DL-List and Torrent activity
Size:  1.04 GB   |    Registered:  3 years   |    Completed:  2 times

Seeder not seen: 1 hour 10 minutes

 
   
 
 
 
Author Message

Трамвай-фильм ®

Gender: Male

Longevity: 5 years 1 month

Posts: 1539

Location: Россия

Post 18-Sep-2016 21:16

[Quote]

Джонни Квест. Документальный фильм / Jonny Quest Documentary / фан-фильм
Страна: США
Жанр: документальный
Год выпуска: 2012
Продолжительность: 02:21:04
Перевод: Авторский (одноголосый) _ Трамвай фильм
Описание: Релиз приурочен к годовщине выхода на ТВ классического сериала о Джонни Квесте (18.09.1964 г.). Авторский фан-фильм про историю создания шедевра и интересных моментах, взятых из интервью Дага Уайлди, фактического отца приключений Джонни Квеста.
Качество видео: WebRip
Формат видео: AVI
Видео: Xvid, 640x352, 29.97fps, 873 Kbps
Аудио: MP3, 44100Hz, stereo, 128 Kbps

MediaInfo

Video
ID : 0
Format : MPEG-4 Visual
Codec ID : XVID
Codec ID/Hint : XviD
Duration : 2h 21mn
Bit rate : 873 Kbps
Width : 640 pixels
Height : 352 pixels
Display aspect ratio : 16:9
Frame rate : 29.970 fps
Color space : YUV
Chroma subsampling : 4:2:0
Compression mode : Lossy
Bits/(Pixel*Frame) : 0.129
Stream size : 881 MiB (83%)
Audio
ID : 1
Format : MPEG Audio
Codec ID : 55
Codec ID/Hint : MP3
Duration : 2h 21mn
Bit rate : 128 Kbps
Channel(s) : 2 channels
Sampling rate : 44.1 KHz
Compression mode : Lossy
Stream size : 129 MiB (12%)
Alignment : Aligned on interleaves

Скриншоты




cd Рип дополнительно залит на ОБЛАКО cd2
Jonny.torrent
Torrent: Registered [ 2016-09-18 21:16 ]

Download .torrent

Download

11 KB

Status: checked
Completed: 2 times
Size: 1.04 GB
 


Last edited by Трамвай-фильм on 2017-07-12 22:01; edited 2 times in total
[Profile] [PM]

Трамвай-фильм ®

Gender: Male

Longevity: 5 years 1 month

Posts: 1539

Location: Россия

Post 18-Sep-2016 21:17 (after 49 seconds)

[Quote]

Этот фильм я бил 2 недели, без малого. И уложился ровно к годовщине - 18 сентября
[Profile] [PM]
Quick Reply

Name:

            
Heads necessary to send messages to enable JavaScript
Display posts:    
Reply to topic

Current time is: 21-Sep 01:50

All times are UTC + 3



You cannot post new topics in this forum
You can reply to topics in this forum
You cannot edit your posts in this forum
You cannot delete your posts in this forum
You cannot vote in polls in this forum
You cannot attach files in this forum
You can download files in this forum