Джонни Квест Документальный фильм / Jonny Quest Documentary [2012, США, документальный, SATRip] [фан-фильм] АО (Трамвай фильм)

Ответить на тему
Статистика раздачи
Размер:  1,04 GB   |    Зарегистрирован:  2 года 5 месяцев   |    Скачан:  2 раза

Полного источника не было: 1 день 6 часов

 
   
 
 
 
Автор Сообщение

Трамвай-фильм ®

Пол: Мужской

Стаж: 4 года 6 месяцев

Сообщений: 1406

Откуда: Россия

Создавать темы 18-Сен-2016 21:46

[Цитировать]

Джонни Квест. Документальный фильм / Jonny Quest Documentary / фан-фильм
Страна: США
Жанр: документальный
Год выпуска: 2012
Продолжительность: 02:21:04
Перевод: Авторский (одноголосый) _ Трамвай фильм
Описание: Релиз приурочен к годовщине выхода на ТВ классического сериала о Джонни Квесте (18.09.1964 г.). Авторский фан-фильм про историю создания шедевра и интересных моментах, взятых из интервью Дага Уайлди, фактического отца приключений Джонни Квеста.
Качество видео: WebRip
Формат видео: AVI
Видео: Xvid, 640x352, 29.97fps, 873 Kbps
Аудио: MP3, 44100Hz, stereo, 128 Kbps

MediaInfo

Video
ID : 0
Format : MPEG-4 Visual
Codec ID : XVID
Codec ID/Hint : XviD
Duration : 2h 21mn
Bit rate : 873 Kbps
Width : 640 pixels
Height : 352 pixels
Display aspect ratio : 16:9
Frame rate : 29.970 fps
Color space : YUV
Chroma subsampling : 4:2:0
Compression mode : Lossy
Bits/(Pixel*Frame) : 0.129
Stream size : 881 MiB (83%)
Audio
ID : 1
Format : MPEG Audio
Codec ID : 55
Codec ID/Hint : MP3
Duration : 2h 21mn
Bit rate : 128 Kbps
Channel(s) : 2 channels
Sampling rate : 44.1 KHz
Compression mode : Lossy
Stream size : 129 MiB (12%)
Alignment : Aligned on interleaves

Скриншоты




cd Рип дополнительно залит на ОБЛАКО cd2
Jonny.torrent
Торрент: Зарегистрирован [ 2016-09-18 21:46 ]

Скачать .torrent

Скачать

11 KB

Статус: проверено
Скачан: 2 раз
Размер: 1,04 GB
 


Последний раз редактировалось: Трамвай-фильм (2017-07-12 22:31), всего редактировалось 2 раз(а)
[Профиль] [ЛС]

Трамвай-фильм ®

Пол: Мужской

Стаж: 4 года 6 месяцев

Сообщений: 1406

Откуда: Россия

Создавать темы 18-Сен-2016 21:47 (спустя 49 секунд)

[Цитировать]

Этот фильм я бил 2 недели, без малого. И уложился ровно к годовщине - 18 сентября
[Профиль] [ЛС]
Быстрый ответ

Имя:

            
Для отправки сообщений необходимо включить JavaScript
Показать сообщения:    
Ответить на тему

Текущее время: 23-Фев 08:07

Часовой пояс: UTC + 3:30



Вы не можете начинать темы
Вы можете отвечать на сообщения
Вы не можете редактировать свои сообщения
Вы не можете удалять свои сообщения
Вы не можете голосовать в опросах
Вы не можете прикреплять файлы к сообщениям
Вы можете скачивать файлы