Макс Хэдрум: на 20 минут в будущее / Макс Хэдрум / Max Headroom / Max Headroom: 20 Minutes into the Future (Аннабел Дженкел, Рокки Мортон / Annabel Jankel, Rocky Morton) [1985, Великобритания, фантастика, драма, комедия, DVDRip] ЛО (den904), СТ (kosmoaelita-karlivanovich)

Ответить на тему
 
Автор Сообщение

admin ®

Пол: Мужской

Стаж: 6 лет 3 месяца

Сообщений: 4730

Откуда: Україна

Создавать темы 14-Сен-2016 21:02

[Цитировать]

Макс Хэдрум: на 20 минут в будущее / Макс Хэдрум / Max Headroom / Max Headroom: 20 Minutes into the Future
Страна: Великобритания, Chrysalis
Жанр: фантастика, драма, комедия
Год выпуска: 1985
Продолжительность: 00:57:36
Перевод: ЛО den904 по субтитрам от (kosmoaelita-karlivanovich)
Режиссер: Аннабел Дженкел, Рокки Мортон / Annabel Jankel, Rocky Morton
В ролях:
Matt Frewer ...Edison Carter / Max Headroom
Nickolas Grace ...Grossman
Hilary Tindall ...Dominique
William Morgan Sheppard ...Blank Reg (as Morgan Sheppard)
Amanda Pays ...Theora Jones
Paul Spurrier ...Bryce Lynch
Hilton McRae ...Breugal
George Rossi ...Mahler
Roger Sloman ...Murray
Anthony Dutton ...Gorrister
Constantine Gregory ...Ben Cheviot
Lloyd McGuire ...Edwards
Elizabeth Richardson ...Ms. Formby
Gary Hope ...Ashwell
Joane Hall ...Body Bank Receptionist
Описание: Эдисон Картер — телевизионный репортёр, чья цель — разоблачать коррупцию и жадность. Картер обнаруживает, что его работодателем была создана новая форма подсознательной рекламы, которая может быть смертельно опасной для некоторых телезрителей.
https://ru.wikipedia.org/wiki/%D0%9C%D0%B0%D0%BA%D1...1%89%D0%B5%D0%B5
Релиз

Качество: DVDRip
Формат: MKV
Видео: x264, 1421 кбит/с, 624x480, 23.976 к/с
Аудио 1: Русский ЛО (den904) (AC3, 2 ch, 192 Кбит/с)
Аудио 2: Английский (AC3, 2 ch, 192 Кбит/с)
Субтитры : Русские ()
Работа над релизом:
Релиз kosmoaelita.
Видеоряд найден в сети.
Перевод на слух с англ. по заказу kosmoaelita - karlivanovich
Русская озвучка по заказу kosmoaelita - den904
Спонсор русской озвучки - Андрей Берг



Пример русских субтитров

Дополнительно

Also Known As (AKA)
(original title) Max Headroom
Germany Max Headroom: Der Film
UK (alternative title) Max Headroom: 20 Minutes Into the Future
Soviet Union (Russian title) Макс Хэдрум: На 20 минут в будущее

Знаете ли вы, что...

Сюжет

В первых минутах фильма происходит знакомство с Эдисоном Картером (Мэтт Фрюэр), телевизионным репортёром, чья цель — разоблачать коррупцию и жадность. Картер обнаруживает, что его работодателем, Сетью 23 (Network 23), была создана новая форма подсознательной рекламы, (т. н. «blip-verts», в дословном переводе звучит как «вспышка веры»), которая может быть смертельно опасной для некоторых телезрителей.
При попытке сбежать из штаб-квартиры Сети с доказательством, Эдисон получает серьёзную травму головы, ударившись об шлагбаум с надписью «Максимальная высота» (max headroom). Подумав, что Картер убит, исполнительный директор Брюс Линч, гений-подросток, работающий учёным в Сети 23, записывает цифровую копию памяти и разума Картера. Запись должна была быть использована для создания компьютерной замены Картера с целью сокрытия его смерти.
Тем не менее, программа Брюса содержит ошибки и, видимо, некорректна: снова и снова бубнит «Макс Хэдрум» (то, что видел Картер перед тем, как потерял сознание, и первые, хоть и примитивные слова, которые Макс говорит, пока его цифровое изображение, подергиваясь, превращается в точную чёткую копию Эдисона). Брюс инструктирует наёмников, чтобы они избавились и от бессознательного Эдисона, и от его виртуальной копии, но они продают Картера в донорский банк органов, а виртуальную копию — владельцу пиратской ТВ-станции «Биг Тайм» (Big Time) Бланку Регу.
Рег «воспитывает» самообучающуюся нейропрограмму, и в результате она начинает жить собственной странной жизнью. Теперь Макс без умолку выдает искромётные шутки в своём новом шоу на Биг Тайм, и рейтинги канала Рега резко идут вверх.
Тем временем, Картер приходит в себя и бежит из донорского банка. С помощью коллеги Торы Джонс (Аманда Пэйс) и благодаря шоу Макса, отвлекшего от него внимание, Картер в конечном счёте одерживает победу над Сетью 23.

MediaInfo

Общее
Уникальный идентификатор : 243003993089472206264023573072550285452 (0xB6D0DDDF5FC552D893BB50512B7FD08C)
Полное имя : N:\Max Headroom 1985.x264.DVDRip.Rus.kosmoaelita.mkv
Формат : Matroska
Версия формата : Version 4 / Version 2
Размер файла : 757 Мбайт
Продолжительность : 57 м.
Общий поток : 1838 Кбит/сек
Название фильма : Max Headroom 1985 / Релиз kosmoaelita.com
Дата кодирования : UTC 2016-12-11 12:44:57
Программа кодирования : mkvmerge v6.6.0 ('The Edge Of The In Between') built on Dec 1 2013 17:55:00
Библиотека кодирования : libebml v1.3.0 + libmatroska v1.4.1
Attachments : poster headroom.jpg
Видео
Идентификатор : 1
Формат : AVC
Формат/Информация : Advanced Video Codec
Профиль формата : High@L3.1
Параметр CABAC формата : Да
Параметр ReFrames формата : 9 кадров
Идентификатор кодека : V_MPEG4/ISO/AVC
Продолжительность : 57 м.
Битрейт : 1418 Кбит/сек
Ширина : 624 пикселя
Высота : 480 пикселей
Соотношение сторон : 4:3
Режим частоты кадров : Постоянный
Частота кадров : 23,976 (24000/1001) кадра/сек
Цветовое пространство : YUV
Субдискретизация насыщенности : 4:2:0
Битовая глубина : 8 бит
Тип развёртки : Прогрессивная
Бит/(Пиксели*Кадры) : 0.197
Размер потока : 584 Мбайт (77%)
Заголовок : kosmoaelita
Библиотека кодирования : x264 core 120
Настройки программы : cabac=1 / ref=9 / deblock=1:-3:-3 / analyse=0x3:0x133 / me=umh / subme=9 / psy=1 / psy_rd=1.00:0.00 / mixed_ref=1 / me_range=24 / chroma_me=1 / trellis=2 / 8x8dct=1 / cqm=0 / deadzone=21,11 / fast_pskip=0 / chroma_qp_offset=-2 / threads=12 / sliced_threads=0 / nr=0 / decimate=1 / interlaced=0 / bluray_compat=0 / constrained_intra=0 / bframes=6 / b_pyramid=2 / b_adapt=2 / b_bias=0 / direct=3 / weightb=1 / open_gop=0 / weightp=2 / keyint=240 / keyint_min=24 / scenecut=40 / intra_refresh=0 / rc_lookahead=60 / rc=crf / mbtree=1 / crf=20.0 / qcomp=0.60 / qpmin=3 / qpmax=69 / qpstep=4 / ip_ratio=1.40 / aq=1:1.00
Язык : English
Default : Да
Forced : Нет
Цветовой диапазон : Limited
Основные цвета : BT.601 NTSC
Характеристики трансфера : BT.709
Коэффициенты матрицы : BT.601
Аудио #1
Идентификатор : 2
Формат : AC-3
Формат/Информация : Audio Coding 3
Расширение режима : CM (complete main)
Параметр Endianness формата : Big
Идентификатор кодека : A_AC3
Продолжительность : 57 м.
Вид битрейта : Постоянный
Битрейт : 192 Кбит/сек
Каналы : 2 канала
Расположение каналов : Front: L R
Частота : 48,0 КГц
Частота кадров : 31,250 кадров/сек (1536 spf)
Метод сжатия : С потерями
Размер потока : 79,1 Мбайт (10%)
Заголовок : Русский ЛО (den904 для kosmoaelita.com) - поддержка А.Берг
Язык : Russian
Default : Да
Forced : Нет
Аудио #2
Идентификатор : 3
Формат : AC-3
Формат/Информация : Audio Coding 3
Расширение режима : CM (complete main)
Параметр Endianness формата : Big
Идентификатор кодека : A_AC3
Продолжительность : 57 м.
Вид битрейта : Постоянный
Битрейт : 192 Кбит/сек
Каналы : 2 канала
Расположение каналов : Front: L R
Частота : 48,0 КГц
Частота кадров : 31,250 кадров/сек (1536 spf)
Метод сжатия : С потерями
Размер потока : 79,1 Мбайт (10%)
Язык : English
Default : Нет
Forced : Нет
Текст #1
Идентификатор : 4
Формат : VobSub
Режим смешивания : zlib
Идентификатор кодека : S_VOBSUB
Идентификатор кодека/Информация : Picture based subtitle format used on DVDs
Заголовок : Русский (kosmoaelita-karlivanovich) VobSub - перевод на слух с англ.
Язык : Russian
Default : Да
Forced : Нет
Текст #2
Идентификатор : 5
Формат : VobSub
Режим смешивания : zlib
Идентификатор кодека : S_VOBSUB
Идентификатор кодека/Информация : Picture based subtitle format used on DVDs
Заголовок : Русский (kosmoaelita-karlivanovich) VobSub - перевод на слух с англ.
Язык : Russian
Default : Нет
Forced : Нет
Текст #3
Идентификатор : 6
Формат : UTF-8
Идентификатор кодека : S_TEXT/UTF8
Идентификатор кодека/Информация : UTF-8 Plain Text
Заголовок : Русский (kosmoaelita-karlivanovich) srt - перевод на слух с англ.
Default : Нет
Forced : Нет

Пример субтитров

1
00:00:01,081 --> 00:00:05,779
"Макс Хэдрум: на 20 минут в будущее"
[Max Headroom, 1985г]
2
00:00:07,897 --> 00:00:10,000
Релиз
www.kosmoaelita.com
3
00:00:11,135 --> 00:00:13,876
МЭТТ ФРЮЭР и НИКОЛАС ГРЕЙС
в фильме
4
00:00:14,603 --> 00:00:18,105
"Макс Хэдрум"
5
00:00:18,643 --> 00:00:21,796
Эдисон Картер вызывает сеть 23.
6
00:00:22,290 --> 00:00:24,771
Сеть 23, вы меня слышите?
----------------------
677
00:55:35,660 --> 00:55:39,069
...сверхреклама может вызвать
внезапный взрыв человека?
678
00:55:39,329 --> 00:55:41,301
Вот дела.
679
00:55:41,748 --> 00:55:47,088
Про политиков попугаи точно
знают, когда те лгут.
680
00:55:47,327 --> 00:55:49,327
Всегда, когда открывают рот.
681
00:56:07,327 --> 00:56:11,327
Перевод на слух с англ.
по заказу kosmoaelita: karlivanovich
сентябрь, 2016 года

Скриншоты








Скринлист

[Профиль] [ЛС]

admin ®

Пол: Мужской

Стаж: 6 лет 3 месяца

Сообщений: 4730

Откуда: Україна

Создавать темы 17-Сен-2016 02:52 (спустя 2 дня 5 часов)

[Цитировать]

Редкостная муть ac
[Профиль] [ЛС]

kosmoaelita

Пол: Мужской

Стаж: 6 лет 3 месяца

Сообщений: 966

Откуда: Украина

Создавать темы 11-Дек-2016 14:33 (спустя 2 месяца 24 дня)

[Цитировать]

Добавлена русская озвучка от den904
[Профиль] [ЛС]
Быстрый ответ

Имя:

            
Для отправки сообщений необходимо включить JavaScript
Показать сообщения:    
Ответить на тему

Текущее время: 16-Дек 09:15

Часовой пояс: UTC + 3:30



Вы не можете начинать темы
Вы можете отвечать на сообщения
Вы не можете редактировать свои сообщения
Вы не можете удалять свои сообщения
Вы не можете голосовать в опросах
Вы не можете прикреплять файлы к сообщениям
Вы не можете скачивать файлы