Мышь на Луне / The Mouse on the Moon (Ричард Лестер / Richard Lester) [1963, Великобритания, фантастика, комедия, DVDRip] MVO (5 Канал) + Original Eng

Reply to topic
DL-List and Torrent activity
Size:  1.46 GB   |    Registered:  2 years 7 months   |    Completed:  7 times

Seeders:

Username ULR UL DL UL speed DL speed
pompilius 0 0- 0- 0- 0-
shows data only for the current session
 
   
 
 
 
Author Message

admin ®

Gender: Male

Longevity: 6 years 7 months

Posts: 4727

Location: Україна

Post 11-Sep-2016 23:38

[Quote]

Мышь на ЛунеThe Mouse on the Moon-Страна: Великобритания
Жанр: фантастика, комедия
Год выпуска: 1963
Продолжительность: 01:25:09 (122491 frames)-Перевод: Профессиональный (многоголосый закадровый) - 5 Канал
Оригинальная аудиодорожка: английский
Режиссер: Ричард Лестер / Richard Lester
В ролях: Маргарет Разерфорд, Рон Муди, Бернард Криббинс, Дэвид Кософф, Терри-Томас, Джун Ричи, Джон Ле Мезюрье, Джон Филлипс, Эрик Баркер, Родди МакМиллан
Описание: Продолжение истории маленькой страны, начатой в фильме "The Mouse that roared". В замке Гранд Фенвик неудобства с горячей водой для ванн, и чтобы добыть денег на сооружение водопровода, премьер-министр запрашивает помощь у США якобы на космическую программу. Русские тоже рады помочь крохотному государству и делают свой вклад.
А между тем... Пока космические сверхдержавы гонятся друг за другом на Луну, гениальный профессор Кокинц вмешивается в их состязание.
Номинация на "Золотой глобус" в категории Лучший актёр в мюзикле/комедии - Terry-Thomas.-- СЕМПЛ Рип:
Качество видео: DVDRip (исходник - DVD5 (Custom))
Формат видео: AVI
Видео: XviD, 656x384 (1.71:1), 23.976 fps, 2051 kbps avg, 0.34 bit/pixel
Аудио 1: RusMVO - AC3 Dolby Digital, 48 kHz, 192 kbps, 2/0 (L,R) ch
Аудио 2: OrigENG - AC3 Dolby Digital, 48 kHz, 192 kbps, 2/0 (L,R) ch

Отзывы

Ха-ха! очень весёлый фильм. Особенно смешно было воспринимать всё происходящее применительно к нашей маленькой стране (гранд Эстония) - и всё соответствует! Феноменально!!! Актёры - прекрасны, очень люблю Терри Томаса,жаль, что его было не так уж много. Странно, что он не запрещён - абсолютно не политкорректен! Может, Америка просто не заметила его... а зря.
-------------------
Смешная и едкая сатира. Тонкий английский юмор. Спасибо
------------------
Жаль, что актёры не те, что в первой части, а то Питер Селлерс в роли королевы - это нечто
-------------------
Отличный ,смешной фильм, весьма едкий. Маргарет Резерфорд ,как всегда бесподобна . Я ее обожаю. Спасибо за редкий фильм . Конечно же в коллекцию !

Рецензия

Скриншоты MediaInfo
Код:
Общее
Полное имя                               : F:\RT\Mysh_na_Lune.1963.XviD.DVDRip.Inch.avi
Формат                                   : AVI
Формат/Информация                        : Audio Video Interleave
Размер файла                             : 1,46 Гбайт
Продолжительность                        : 1 ч. 25 м.
Общий поток                              : 2451 Кбит/сек
Название фильма                          : The Mouse on the Moon
Режиссёр                                 : Inch
Жанр                                     : Comedy/Romance/Sci-Fi
Программа кодирования                    : VirtualDubMod 1.5.10.3 | www.virtualdub-fr.org || (build 2550/release)
Формат оригинала/Имя                     : Nominated for 1 Golden Globe
Правообладатель                          : rutracker.org
Примечание                               : RusMVO[5-SPB] + Orig[Eng]
Видео
Идентификатор                            : 0
Формат                                   : MPEG-4 Visual
Профиль формата                          : Advanced Simple@L5
Параметр BVOP формата                    : 2
Параметр QPel формата                    : Нет
Параметр GMC формата                     : Без точки перехода
Параметр матрицы формата                 : Выборочная
Идентификатор кодека                     : XVID
Идентификатор кодека/Подсказка           : XviD
Продолжительность                        : 1 ч. 25 м.
Битрейт                                  : 2052 Кбит/сек
Ширина                                   : 656 пикселей
Высота                                   : 384 пикселя
Соотношение сторон                       : 1,708
Частота кадров                           : 23,976 кадра/сек
Цветовое пространство                    : YUV
Субдискретизация насыщенности            : 4:2:0
Битовая глубина                          : 8 бит
Тип развёртки                            : Прогрессивная
Метод сжатия                             : С потерями
Бит/(Пиксели*Кадры)                      : 0.340
Размер потока                            : 1,22 Гбайт (84%)
Библиотека кодирования                   : XviD 73
Аудио #1
Идентификатор                            : 1
Формат                                   : AC-3
Формат/Информация                        : Audio Coding 3
Расширение режима                        : CM (complete main)
Параметр Endianness формата              : Big
Идентификатор кодека                     : 2000
Продолжительность                        : 1 ч. 25 м.
Вид битрейта                             : Постоянный
Битрейт                                  : 192 Кбит/сек
Каналы                                   : 2 канала
Расположение каналов                     : Front: L R
Частота                                  : 48,0 КГц
Битовая глубина                          : 16 бит
Метод сжатия                             : С потерями
Размер потока                            : 117 Мбайт (8%)
Выравнивание                             : Разделение по промежуткам
Продолжительность промежутка             : 42  мс. (1,00 видеокадр)
Время предзагрузки промежутка            : 500  мс.
Аудио #2
Идентификатор                            : 2
Формат                                   : AC-3
Формат/Информация                        : Audio Coding 3
Расширение режима                        : CM (complete main)
Параметр Endianness формата              : Big
Идентификатор кодека                     : 2000
Продолжительность                        : 1 ч. 25 м.
Вид битрейта                             : Постоянный
Битрейт                                  : 192 Кбит/сек
Каналы                                   : 2 канала
Расположение каналов                     : Front: L R
Частота                                  : 48,0 КГц
Битовая глубина                          : 16 бит
Метод сжатия                             : С потерями
Размер потока                            : 117 Мбайт (8%)
Выравнивание                             : Разделение по промежуткам
Продолжительность промежутка             : 42  мс. (1,00 видеокадр)
Время предзагрузки промежутка            : 500  мс.
Сравнения cd Рип дополнительно залит на ОБЛАКО cd2
Mysh_na_Lune.1963.XviD.DVDRip.Inch.avi.torrent
Torrent: Registered [ 2016-09-11 23:38 ]

Download .torrent

Download

15 KB

Status: checked
Completed: 7 times
Size: 1.46 GB
 
[Profile] [PM]
Display posts:    
Reply to topic

Current time is: 26-Apr 15:21

All times are UTC + 3.5



You can post new topics in this forum
You cannot reply to topics in this forum
You can edit your posts in this forum
You cannot delete your posts in this forum
You cannot vote in polls in this forum
You cannot attach files in this forum
You can download files in this forum