Проблема профессора Челавы / Problemat profesora Czelawy (Zygmunt Lech / Зыгмунт Лех) [1985, Польша, фантастика, фильм ужасов, экранизация, TVRip] rus + original pol

Reply to topic
DL-List and Torrent activity
Size:  535 MB   |    Registered:  4 years 1 month   |    Completed:  1 time

Seeder not seen: 1 year 9 months

 
   
 
 
 
Author Message

admin ®

Gender: Male

Longevity: 8 years 1 month

Posts: 4795

Post 11-Sep-2016 10:49

[Quote]

Проблема профессора Челавы / Problemat profesora Czelawy
Страна: Польша
Жанр: фантастика, фильм ужасов, экранизация
Год выпуска: 1985
Продолжительность: 00:57:01
Перевод: ЛО Хамстер по субтитрам от m_holodkowski
Режиссер: Zygmunt Lech / Зыгмунт Лех
В ролях: Эугениуш Куявский, Дорота Каминьска, Ян Шурмей
Описание: Телевизионная экранизация рассказа "Проблема Челавы" писателя Стефана Грабинского (подражание повести Р.Л.Стивенсона "Странная история доктора Джекила и мистера Хайда").
К доктору Стоцкому обращается жена известного психиатра, профессора Челавы, с жалобами на то, что к ней в ночных кошмарах является злой двойник мужа. При этом она утверждает, что двойник существует на самом деле...

Доп. информация: Стефан Грабинский / Stefan Grabiński (1887-1936) - писатель-фантаст, которого называют "польским Эдгаром По". Неоднократно экранизировался в Польше и Германии:
Kochanka Szamoty (1927)
Ślepy tor (1967)
Pozarowisko (1969)
Dom Sary (1984) - http://rutracker.org/forum/viewtopic.php?t=4328983
Problemat profesora Czelawy (1985)
Nikt nie jest winien (1986)
Szamotas Geliebte (1999)
Ultima Thule (2002)

Качество видео: TVRip
Формат видео: mkv
Видео: XVID 640x480 25.00fps 1101Kbps
Аудио 1: Русский (AC3, 2 ch, 192 Кбит/с)
Аудио 2: Польсский (AC3, 2 ch, 192 Кбит/с)
Субтитры : Русские (m_holodkowski)
Работа над релизом:




ИНФОРМАЦИЯ О СОЗДАТЕЛЯХ
Режиссер Zygmunt Lech / Зыгмунт Лех, к сожалению, мало работал в кино. На его счету - всего 4 телефильма, из них два - экранизации Грабинского (данный фильм и "Дом Сары").

Eugeniusz Kujawski / Эугениуш Куявский - актер эпизода, в основном его фактурную внешность использовали в ролях польских шляхтичей ("Близко, все ближе"), и гитлеровских офицеров ("Ставка больше, чем жизнь"). Только режиссер Лех дал ему несколько главных ролей (в данном фильме, в "Доме Сары", и в "Корчме на болотах").

Dorota Kamińska / Дорота Каминьска - актриса, известная фильмами "Карате по-польски", "Ведьмак", "Ох, Кароль", и сериалом "Волна преступности".

Jan Szurmiej / Ян Шурмей - представитель давней еврейской театральной династии. Снимался в фильме "Аустерия", сериалах "Близко, все ближе", "Королевские сны". Также работал хореографом на фильмах "Путешествие пана Кляксы", "Барышня с мокрой головой" и др.

В роли юной балерины выступила Monika Pietkiewicz / Моника Петкевич, впоследствии ставшая журналисткой, вышедшая замуж за англичанина, и сегодня она - популярная телеведущая Monika Richardson / Моника Ричардсон (а свою танцевальную сноровку она показала в шоу "Танцы со звездами").

MediaInfo

Общее
Уникальный идентификатор : 230897634138557012719899338001531929516 (0xADB5444AE10076DDA46F7D6830AE03AC)
Полное имя : N:\BD-DISC\СЕТЕВЫЕ\Problemat profesora Czelawy\Problemat profesora Czelawy 1985.XviD.TVRip.Rus.kosmoaelita.mkv
Формат : Matroska
Версия формата : Version 4 / Version 2
Размер файла : 535 Мбайт
Продолжительность : 57 м.
Общий поток : 1311 Кбит/сек
Название фильма : Проблема профессора Челавы / Problemat profesora Czelawy / 1985 / kosmoaelita
Дата кодирования : UTC 2016-09-11 10:35:35
Программа кодирования : mkvmerge v6.6.0 ('The Edge Of The In Between') built on Dec 1 2013 17:55:00
Библиотека кодирования : libebml v1.3.0 + libmatroska v1.4.1
Attachments : ПРОБЛЕМА ЧЕЛАВЫ.txt
Видео
Идентификатор : 1
Формат : MPEG-4 Visual
Профиль формата : Advanced Simple@L5
Параметр BVOP формата : 1
Параметр QPel формата : Нет
Параметр GMC формата : Без точки перехода
Параметр матрицы формата : Default (H.263)
Идентификатор кодека : V_MS/VFW/FOURCC / XVID
Идентификатор кодека/Подсказка : XviD
Продолжительность : 57 м.
Битрейт : 837 Кбит/сек
Ширина : 640 пикселей
Высота : 480 пикселей
Соотношение сторон : 4:3
Режим частоты кадров : Постоянный
Частота кадров : 25,000 кадров/сек
Цветовое пространство : YUV
Субдискретизация насыщенности : 4:2:0
Битовая глубина : 8 бит
Тип развёртки : Прогрессивная
Метод сжатия : С потерями
Бит/(Пиксели*Кадры) : 0.109
Размер потока : 341 Мбайт (64%)
Заголовок : kosmoaelita
Библиотека кодирования : XviD 1.1.0 RC (UTC 2005-11-22)
Default : Да
Forced : Нет
Аудио #1
Идентификатор : 2
Формат : AC-3
Формат/Информация : Audio Coding 3
Расширение режима : CM (complete main)
Параметр Endianness формата : Big
Идентификатор кодека : A_AC3
Продолжительность : 57 м.
Вид битрейта : Постоянный
Битрейт : 192 Кбит/сек
Каналы : 2 канала
Расположение каналов : Front: L R
Частота : 48,0 КГц
Частота кадров : 31,250 кадров/сек (1536 spf)
Метод сжатия : С потерями
Размер потока : 78,3 Мбайт (15%)
Заголовок : Русский ЛО (Хамстер) по субтитрам от m_holodkowski
Язык : Russian
Default : Да
Forced : Нет
Аудио #2
Идентификатор : 3
Формат : MPEG Audio
Версия формата : Version 1
Профиль формата : Layer 3
Режим : Joint stereo
Расширение режима : MS Stereo
Идентификатор кодека : A_MPEG/L3
Идентификатор кодека/Подсказка : MP3
Продолжительность : 57 м.
Вид битрейта : Постоянный
Битрейт : 256 Кбит/сек
Каналы : 2 канала
Частота : 48,0 КГц
Метод сжатия : С потерями
Размер потока : 104 Мбайт (20%)
Язык : Polish
Default : Нет
Forced : Нет
Текст #1
Идентификатор : 4
Формат : UTF-8
Идентификатор кодека : S_TEXT/UTF8
Идентификатор кодека/Информация : UTF-8 Plain Text
Заголовок : Русский (m_holodkowski) - srt
Язык : Russian
Default : Да
Forced : Нет
Текст #2
Идентификатор : 5
Формат : VobSub
Режим смешивания : zlib
Идентификатор кодека : S_VOBSUB
Идентификатор кодека/Информация : Picture based subtitle format used on DVDs
Заголовок : Русский (m_holodkowski) - VobSub
Язык : Russian
Default : Нет
Forced : Нет
Скриншоты

Скринлист

cd Рип дополнительно залит на ОБЛАКО cd2
Problemat profesora Czelawy 1985.XviD.TVRip.Rus.kosmoaelita.mkv.torrent
Torrent: Registered [ 2016-09-11 13:52 ]

Download .torrent

Download

21 KB

Status: checked
Completed: 1 times
Size: 535 MB
 
[Profile] [PM]
Display posts:    
Reply to topic

Current time is: 28-Oct 23:50

All times are UTC + 3



You cannot post new topics in this forum
You cannot reply to topics in this forum
You cannot edit your posts in this forum
You cannot delete your posts in this forum
You cannot vote in polls in this forum
You cannot attach files in this forum
You can download files in this forum