Незримая сила / Shadow Strikers (Джон Кафка) [1990, США, Фантастика. Боевик., VHSRip] [Пилотная серия] (АО : Трамвай фильм)

Reply to topic
DL-List and Torrent activity
Size:  188 MB   |    Registered:  4 years 2 months   |    Completed:  3 times

Seeder not seen: 3 hours

 
   
 
 
 
Author Message

Трамвай-фильм ®

Gender: Male

Longevity: 6 years 3 months

Posts: 1881

Location: Россия

Post 10-Sep-2016 15:43

[Quote]

Незримая сила / Shadow Strikers / Пилотная серия
Страна: США
Жанр: Фантастика. Боевик.
Год выпуска: 1990
Продолжительность: 00:22:17
Перевод: Авторский (одноголосый) Трамвай фильм
Режиссер: Джон Кафка
Описание: Пилотная серия мультсериала, так и не вышедшего в свет, сие творение было призвано раскрутить продажи игрушек фирмы "Kenner". Сюжет незамысловат: крутая команда борется с группой террористов доктора Гадюки.
Доп. информация: Вышла только 1 серия для раскрутки продаж, дальше дело не пошло, кроме кассет ее транслировала телесеть "Сабан"
Качество видео: VHSRip
Видео: Xvid, 640х480, ~995 кб/с
Аудио: MP3, 2 ch, 128 кб/с

MediaInfo

Video
ID : 0
Format : MPEG-4 Visual
Codec ID : XVID
Codec ID/Hint : XviD
Duration : 22mn 16s
Bit rate : 995 Kbps
Width : 640 pixels
Height : 480 pixels
Display aspect ratio : 4:3
Frame rate : 29.970 fps
Color space : YUV
Chroma subsampling : 4:2:0
Compression mode : Lossy
Bits/(Pixel*Frame) : 0.108
Stream size : 159 MiB (84%)
Audio
ID : 1
Format : MPEG Audio
Codec ID : 55
Codec ID/Hint : MP3
Duration : 22mn 16s
Bit rate : 128 Kbps
Channel(s) : 2 channels
Sampling rate : 44.1 KHz
Compression mode : Lossy
Stream size : 20.4 MiB (11%)
Alignment : Aligned on interleaves

Скриншот c названием фильма

Скриншоты




cd Рип дополнительно залит на ОБЛАКО cd2
Shadow.Strikers.1990.avi.torrent
Torrent: Registered [ 2016-09-10 15:43 ]

Download .torrent

Download

15 KB

Status: checked
Completed: 3 times
Size: 188 MB
 


Last edited by Трамвай-фильм on 2017-11-04 18:37; edited 1 time in total
[Profile] [PM]

CROM@G

Gender: Male

Longevity: 5 years 2 months

Posts: 3430

Location: Прибалтика

Post 11-Sep-2016 14:35 (after 22 hours)

[Quote]

Ох ты ж гостей прилетело на халяву
[Profile] [PM]

Трамвай-фильм ®

Gender: Male

Longevity: 6 years 3 months

Posts: 1881

Location: Россия

Post 11-Sep-2016 21:13 (after 6 hours)

[Quote]

16006Ох ты ж гостей прилетело на халяву
Целых три. И те видать по обмену пирами
[Profile] [PM]
Display posts:    
Reply to topic

Current time is: 27-Nov 05:22

All times are UTC + 3



You can post new topics in this forum
You cannot reply to topics in this forum
You cannot edit your posts in this forum
You cannot delete your posts in this forum
You cannot vote in polls in this forum
You can attach files in this forum
You can download files in this forum