Незримая сила / Shadow Strikers (Джон Кафка) [1990, США, Фантастика. Боевик., VHSRip] [Пилотная серия] (АО : Трамвай фильм)

Ответить на тему
Статистика раздачи
Размер:  188 MB   |    Зарегистрирован:  2 года 1 месяц   |    Скачан:  2 раза

Полного источника не было: 14 часов

 
   
 
 
 
Автор Сообщение

Трамвай-фильм ®

Пол: Мужской

Стаж: 4 года 2 месяца

Сообщений: 1315

Откуда: Россия

Создавать темы 10-Сен-2016 16:13

[Цитировать]

Незримая сила / Shadow Strikers / Пилотная серия
Страна: США
Жанр: Фантастика. Боевик.
Год выпуска: 1990
Продолжительность: 00:22:17
Перевод: Авторский (одноголосый) Трамвай фильм
Режиссер: Джон Кафка
Описание: Пилотная серия мультсериала, так и не вышедшего в свет, сие творение было призвано раскрутить продажи игрушек фирмы "Kenner". Сюжет незамысловат: крутая команда борется с группой террористов доктора Гадюки.
Доп. информация: Вышла только 1 серия для раскрутки продаж, дальше дело не пошло, кроме кассет ее транслировала телесеть "Сабан"
Качество видео: VHSRip
Видео: Xvid, 640х480, ~995 кб/с
Аудио: MP3, 2 ch, 128 кб/с

MediaInfo

Video
ID : 0
Format : MPEG-4 Visual
Codec ID : XVID
Codec ID/Hint : XviD
Duration : 22mn 16s
Bit rate : 995 Kbps
Width : 640 pixels
Height : 480 pixels
Display aspect ratio : 4:3
Frame rate : 29.970 fps
Color space : YUV
Chroma subsampling : 4:2:0
Compression mode : Lossy
Bits/(Pixel*Frame) : 0.108
Stream size : 159 MiB (84%)
Audio
ID : 1
Format : MPEG Audio
Codec ID : 55
Codec ID/Hint : MP3
Duration : 22mn 16s
Bit rate : 128 Kbps
Channel(s) : 2 channels
Sampling rate : 44.1 KHz
Compression mode : Lossy
Stream size : 20.4 MiB (11%)
Alignment : Aligned on interleaves

Скриншот c названием фильма

Скриншоты




cd Рип дополнительно залит на ОБЛАКО cd2
Shadow.Strikers.1990.avi.torrent
Торрент: Зарегистрирован [ 2016-09-10 16:13 ]

Скачать .torrent

Скачать

15 KB

Статус: проверено
Скачан: 2 раз
Размер: 188 MB
 


Последний раз редактировалось: Трамвай-фильм (2017-11-04 19:07), всего редактировалось 1 раз
[Профиль] [ЛС]

croMAG

Пол: Мужской

Стаж: 3 года 1 месяц

Сообщений: 1944

Откуда: Прибалтика

Создавать темы 11-Сен-2016 15:05 (спустя 22 часа)

[Цитировать]

Ох ты ж гостей прилетело на халяву
[Профиль] [ЛС]

Трамвай-фильм ®

Пол: Мужской

Стаж: 4 года 2 месяца

Сообщений: 1315

Откуда: Россия

Создавать темы 11-Сен-2016 21:43 (спустя 6 часов)

[Цитировать]

16006Ох ты ж гостей прилетело на халяву
Целых три. И те видать по обмену пирами
[Профиль] [ЛС]
Быстрый ответ

Имя:

            
Для отправки сообщений необходимо включить JavaScript
Показать сообщения:    
Ответить на тему

Текущее время: 20-Окт 11:53

Часовой пояс: UTC + 3:30



Вы можете начинать темы
Вы можете отвечать на сообщения
Вы можете редактировать свои сообщения
Вы не можете удалять свои сообщения
Вы не можете голосовать в опросах
Вы можете прикреплять файлы к сообщениям
Вы можете скачивать файлы