Нация пришельцев Наследия Удары / Alien Nation: The Udara Legacy (Кеннет Джонсон /Kenneth Johnson/.) [1997, США Германия, Фантастика., DVD5] (ПМ)

Reply to topic
 
Author Message

CROM@G ®

Gender: Male

Longevity: 4 years 6 months

Posts: 3186

Location: Прибалтика

Post 10-Sep-2016 14:50

[Quote]

Нация пришельцев 6 Наследия Удары / Alien Nation: The Udara Legacy
Страна: США Германия, Twentieth Century Fox Film Corporation, Kenneth Johnson Productions.
Жанр: Фантастика.
Год выпуска: 1997
Продолжительность: 01:29:47.
Перевод: Профессиональный (многоголосый)
Режиссер: Кеннет Джонсон /Kenneth Johnson/.
В ролях: Гэри Грэм /Gary Graham/, Эрик Пирпойнт /Eric Pierpoint/, Микеле Скарабелли /Michele Scarabelli/, Терри Триз /Terri Treas/, Лорен Вудлэнд /Lauren Woodland/, Шон Сикс /Sean Six/, Джефф Маркус /Jeff Marcus/, Рон Фэсслер /Ron Fassler/, Рон Фасслер /Ron Fassler/, Дженни Гэго /Jenny Gago/, Пегги МакКэй /Peggy McCay/, Тим Де Зарн /Tim De Zarn/, Майкл Мэнтелл /Michael Mantell/, Роберт Госсетт /Robert Gossett/, Джефф Эллин /Jeff Allin/, Лейн Смит /Lane Smith/, Том Бэрри /Thom Barry/, Джош Круз /Josh Cruz/, Шерри Дэвис /Sherry Davis/, Джордж Фишер /George Fisher/, Хуан Гарсия /Juan Garcia/, Кевин Гревье /Kevin Grevioux/, Бренда Гриффин /Brenda Griffin/, Джек Керриган /Jack Kerrigan/, Грег Лонгстрит /Greg Longstreet/, Скотч Эллис Лоринг /Scotch Ellis Loring/.
Описание: Детективы Сайкс и Франциско сталкиваются с одним из сложнейших дел в карьере, когда выясняется, что часть бежавших на Землю инопланетных рабов была запрограммирована на выполнение функций террористов-смертников. Теперь, некто нашедший способ реактивировать программу в их мозгу, использует пришельцев в собственных зловещих целях…
Хронология следующая:
1. Alien Nation (фильм), 1988 год
2. Alien Nation (сериал), 1989–1990 год
3. Alien Nation: Dark Horizon (первый сиквэл), 1994 год
4. Alien Nation: Body and Soul (второй сиквэл), 1995 год
5. Alien Nation: Millennium (третий сиквэл), 1996 год
6. Alien Nation: The Enemy Within (четвертый сиквэл), 1996 год
7. Alien Nation: The Udara Legacy (пятый заключительный сиквел), 1997 год
Доп. информация: релиз croMAG .Двд достал admin собрал anvic
Качество видео: DVD5
Формат видео: DVD Video
Видео: MPEG Video 720x480 (4:3) 29.970 кадров.сек Битрейт переменный
Аудио: AC-3 2 ch Битрейт 192 кбит.сек
Аудио 2: AC-3 2 ch Битрейт 192 кбит.сек
Работа над релизом:




Пример русского перевода
[youtube][/youtube]

Дополнительно

возраст зрителям, достигшим 16 лет
Also Known As (AKA)
Bulgaria (Bulgarian title) Нация от извънземни
Germany Alien Nation - Das Udara-Vermächtnis
Spain Alien nación: El legado de Udara
Finland (informal title) Alien Nation - Udara uhkaa
Finland Muukalaiset - Udara uhkaa
Hungary Idegenek: Az Udara-örökség
Poland Przybysze - Ludzie Udary
Sweden Alien Nation - Udaras arv

Знаете ли вы, что...

Отзывы

Рецензия

MediaInfo

Общее
Полное имя : C:\Users\Roman\Нация Пришельцев (Наследие Удара)\VIDEO_TS.BUP
Формат : DVD Video
Профиль формата : Menu
Размер файла : 20,0 Кбайт
Режим общего битрейта : Переменный
Видео
Идентификатор : 224 (0xE0)
Формат : MPEG Video
Версия формата : Version 2
Вид битрейта : Переменный
Ширина : 720 пикселей
Высота : 480 пикселей
Соотношение сторон : 4:3
Частота кадров : 29,970 (29970/1000) кадров/сек
Стандарт вещания : NTSC
Метод сжатия : С потерями
Текст
Формат : RLE
Формат/Информация : Run-length encoding
Битовая глубина : 2 бит
Общее
Полное имя : C:\Users\Roman\Нация Пришельцев (Наследие Удара)\VIDEO_TS.IFO
Формат : DVD Video
Профиль формата : Menu
Размер файла : 20,0 Кбайт
Режим общего битрейта : Переменный
Видео
Идентификатор : 224 (0xE0)
Формат : MPEG Video
Версия формата : Version 2
Вид битрейта : Переменный
Ширина : 720 пикселей
Высота : 480 пикселей
Соотношение сторон : 4:3
Частота кадров : 29,970 (29970/1000) кадров/сек
Стандарт вещания : NTSC
Метод сжатия : С потерями
Текст
Формат : RLE
Формат/Информация : Run-length encoding
Битовая глубина : 2 бит
Общее
Полное имя : C:\Users\Roman\Нация Пришельцев (Наследие Удара)\VIDEO_TS.VOB
Формат : MPEG-PS
Размер файла : 326 Кбайт
Продолжительность : 33 мс.
Общий поток : 80,9 Мбит/сек
Видео
Идентификатор : 224 (0xE0)
Формат : MPEG Video
Версия формата : Version 2
Профиль формата : Main@Main
Параметр BVOP формата : Нет
Параметр матрицы формата : Выборочная
Продолжительность : 33 мс.
Максимальный битрейт : 8000 Кбит/сек
Ширина : 720 пикселей
Высота : 480 пикселей
Соотношение сторон : 4:3
Частота кадров : 29,970 (30000/1001) кадров/сек
Стандарт вещания : NTSC
Цветовое пространство : YUV
Субдискретизация насыщенности : 4:2:0
Битовая глубина : 8 бит
Тип развёртки : Прогрессивная
Порядок развёртки : Верхнее поле первое
Метод сжатия : С потерями
Основные цвета : BT.601 NTSC
Характеристики трансфера : BT.601
Коэффициенты матрицы : BT.601
Меню
Общее
Полное имя : C:\Users\Roman\Нация Пришельцев (Наследие Удара)\VTS_01_0.BUP
Формат : DVD Video
Профиль формата : Program
Размер файла : 72,0 Кбайт
Продолжительность : 1 ч. 29 м.
Режим общего битрейта : Переменный
Общий поток : 110 бит/сек
Видео
Идентификатор : 224 (0xE0)
Формат : MPEG Video
Версия формата : Version 2
Продолжительность : 1 ч. 29 м.
Вид битрейта : Переменный
Ширина : 720 пикселей
Высота : 480 пикселей
Соотношение сторон : 4:3
Частота кадров : 29,970 (29970/1000) кадров/сек
Стандарт вещания : NTSC
Метод сжатия : С потерями
Аудио #1
Идентификатор : 128 (0x80)
Формат : AC-3
Формат/Информация : Audio Coding 3
Продолжительность : 1 ч. 29 м.
Каналы : 2 канала
Частота : 48,0 КГц
Метод сжатия : С потерями
Язык : Russian
Аудио #2
Идентификатор : 129 (0x81)
Формат : AC-3
Формат/Информация : Audio Coding 3
Продолжительность : 1 ч. 29 м.
Каналы : 2 канала
Частота : 48,0 КГц
Метод сжатия : С потерями
Язык : English
Аудио #3
Идентификатор : 130 (0x82)
Формат : AC-3
Формат/Информация : Audio Coding 3
Продолжительность : 1 ч. 29 м.
Каналы : 2 канала
Частота : 48,0 КГц
Метод сжатия : С потерями
Язык : English
Язык, дополнительно : Director's comments
Текст #1
Идентификатор : 32 (0x20)
Формат : RLE
Формат/Информация : Run-length encoding
Битовая глубина : 2 бит
Язык : English
Текст #2
Идентификатор : 32 (0x20)
Формат : RLE
Формат/Информация : Run-length encoding
Битовая глубина : 2 бит
Язык : Spanish
Язык, дополнительно : Normal
Текст #3
Идентификатор : 32 (0x20)
Формат : RLE
Формат/Информация : Run-length encoding
Битовая глубина : 2 бит
Язык : Spanish
Язык, дополнительно : Normal
Меню #1
Продолжительность : 1 ч. 29 м.
00:00:00.000 : Chapter 1
00:06:32.666 : Chapter 2
00:10:08.199 : Chapter 3
00:13:47.865 : Chapter 4
00:15:50.798 : Chapter 5
00:20:18.464 : Chapter 6
00:22:15.030 : Chapter 7
00:28:22.563 : Chapter 8
00:34:56.629 : Chapter 9
00:39:26.295 : Chapter 10
00:44:44.128 : Chapter 11
00:48:26.628 : Chapter 12
00:52:19.628 : Chapter 13
00:58:43.428 : Chapter 14
01:05:37.261 : Chapter 15
01:07:14.261 : Chapter 16
01:11:27.594 : Chapter 17
01:17:27.994 : Chapter 18
01:22:39.094 : Chapter 19
01:25:54.594 : Chapter 20
01:29:42.294 : Chapter 21
List (Audio) : 0 / 1 / 2
List (Subtitles 4/3) : 0 / 1 / 2
List (Subtitles Wide) : 0 / 0 / 0
List (Subtitles Letterbox) : 0 / 0 / 0
List (Subtitles Pan&Scan) : 0 / 0 / 0
Меню #2
Продолжительность : 400 мс.
00:00:00.000 : Chapter 1
List (Audio) : 0 / 1 / 2
List (Subtitles 4/3) : 0 / 1 / 2
List (Subtitles Wide) : 0 / 0 / 0
List (Subtitles Letterbox) : 0 / 0 / 0
List (Subtitles Pan&Scan) : 0 / 0 / 0
Меню #3
Общее
Полное имя : C:\Users\Roman\Нация Пришельцев (Наследие Удара)\VTS_01_0.IFO
Формат : DVD Video
Профиль формата : Program
Размер файла : 72,0 Кбайт
Продолжительность : 1 ч. 29 м.
Режим общего битрейта : Переменный
Общий поток : 110 бит/сек
Видео
Идентификатор : 224 (0xE0)
Формат : MPEG Video
Версия формата : Version 2
Продолжительность : 1 ч. 29 м.
Вид битрейта : Переменный
Ширина : 720 пикселей
Высота : 480 пикселей
Соотношение сторон : 4:3
Частота кадров : 29,970 (29970/1000) кадров/сек
Стандарт вещания : NTSC
Метод сжатия : С потерями
Аудио #1
Идентификатор : 128 (0x80)
Формат : AC-3
Формат/Информация : Audio Coding 3
Продолжительность : 1 ч. 29 м.
Каналы : 2 канала
Частота : 48,0 КГц
Метод сжатия : С потерями
Язык : Russian
Аудио #2
Идентификатор : 129 (0x81)
Формат : AC-3
Формат/Информация : Audio Coding 3
Продолжительность : 1 ч. 29 м.
Каналы : 2 канала
Частота : 48,0 КГц
Метод сжатия : С потерями
Язык : English
Аудио #3
Идентификатор : 130 (0x82)
Формат : AC-3
Формат/Информация : Audio Coding 3
Продолжительность : 1 ч. 29 м.
Каналы : 2 канала
Частота : 48,0 КГц
Метод сжатия : С потерями
Язык : English
Язык, дополнительно : Director's comments
Текст #1
Идентификатор : 32 (0x20)
Формат : RLE
Формат/Информация : Run-length encoding
Битовая глубина : 2 бит
Язык : English
Текст #2
Идентификатор : 32 (0x20)
Формат : RLE
Формат/Информация : Run-length encoding
Битовая глубина : 2 бит
Язык : Spanish
Язык, дополнительно : Normal
Текст #3
Идентификатор : 32 (0x20)
Формат : RLE
Формат/Информация : Run-length encoding
Битовая глубина : 2 бит
Язык : Spanish
Язык, дополнительно : Normal
Меню #1
Продолжительность : 1 ч. 29 м.
00:00:00.000 : Chapter 1
00:06:32.666 : Chapter 2
00:10:08.199 : Chapter 3
00:13:47.865 : Chapter 4
00:15:50.798 : Chapter 5
00:20:18.464 : Chapter 6
00:22:15.030 : Chapter 7
00:28:22.563 : Chapter 8
00:34:56.629 : Chapter 9
00:39:26.295 : Chapter 10
00:44:44.128 : Chapter 11
00:48:26.628 : Chapter 12
00:52:19.628 : Chapter 13
00:58:43.428 : Chapter 14
01:05:37.261 : Chapter 15
01:07:14.261 : Chapter 16
01:11:27.594 : Chapter 17
01:17:27.994 : Chapter 18
01:22:39.094 : Chapter 19
01:25:54.594 : Chapter 20
01:29:42.294 : Chapter 21
List (Audio) : 0 / 1 / 2
List (Subtitles 4/3) : 0 / 1 / 2
List (Subtitles Wide) : 0 / 0 / 0
List (Subtitles Letterbox) : 0 / 0 / 0
List (Subtitles Pan&Scan) : 0 / 0 / 0
Меню #2
Продолжительность : 400 мс.
00:00:00.000 : Chapter 1
List (Audio) : 0 / 1 / 2
List (Subtitles 4/3) : 0 / 1 / 2
List (Subtitles Wide) : 0 / 0 / 0
List (Subtitles Letterbox) : 0 / 0 / 0
List (Subtitles Pan&Scan) : 0 / 0 / 0
Меню #3
Общее
Полное имя : C:\Users\Roman\Нация Пришельцев (Наследие Удара)\VTS_01_0.VOB
Формат : MPEG-PS
Размер файла : 7,00 Мбайт
Продолжительность : 1 м. 0 с.
Общий поток : 970 Кбит/сек
Видео
Идентификатор : 224 (0xE0)
Формат : MPEG Video
Версия формата : Version 2
Профиль формата : Main@Main
Параметр BVOP формата : Нет
Параметр матрицы формата : Выборочная
Параметр GOP формата : N=1
Продолжительность : 33 мс.
Битрейт : 759 Кбит/сек
Максимальный битрейт : 8000 Кбит/сек
Ширина : 720 пикселей
Высота : 480 пикселей
Соотношение сторон : 4:3
Частота кадров : 29,970 (30000/1001) кадров/сек
Стандарт вещания : NTSC
Цветовое пространство : YUV
Субдискретизация насыщенности : 4:2:0
Битовая глубина : 8 бит
Тип развёртки : Прогрессивная
Порядок развёртки : Верхнее поле первое
Метод сжатия : С потерями
Бит/(Пиксели*Кадры) : 0.073
Размер потока : 3,09 Кбайт (0%)
Основные цвета : BT.601 NTSC
Характеристики трансфера : BT.601
Коэффициенты матрицы : BT.601
Аудио
Идентификатор : 189 (0xBD)-128 (0x80)
Формат : AC-3
Формат/Информация : Audio Coding 3
Профиль формата : Dolby Digital
Расширение режима : CM (complete main)
Параметр Endianness формата : Big
Режим смешивания : DVD-Video
Продолжительность : 1 м. 0 с.
Вид битрейта : Постоянный
Битрейт : 192 Кбит/сек
Каналы : 2 канала
Расположение каналов : Front: L R
Частота : 48,0 КГц
Частота кадров : 31,250 кадров/сек (1536 spf)
Метод сжатия : С потерями
Размер потока : 1,39 Мбайт (20%)
Текст
Идентификатор : 189 (0xBD)-32 (0x20)
Формат : RLE
Формат/Информация : Run-length encoding
Режим смешивания : DVD-Video
Меню
Общее
Полное имя : C:\Users\Roman\Нация Пришельцев (Наследие Удара)\VTS_01_1.VOB
Формат : MPEG-PS
Размер файла : 1024 Мбайт
Продолжительность : 1 ч. 26 м.
Режим общего битрейта : Переменный
Общий поток : 1651 Кбит/сек
Библиотека кодирования : encoded by TMPGEnc (ver. 2.524.63.181)
Видео
Идентификатор : 224 (0xE0)
Формат : MPEG Video
Версия формата : Version 2
Профиль формата : Main@Main
Параметр BVOP формата : Да
Параметр матрицы формата : Выборочная
Параметр GOP формата : Variable
Продолжительность : 1 ч. 26 м.
Вид битрейта : Переменный
Битрейт : 1043 Кбит/сек
Ширина : 720 пикселей
Высота : 480 пикселей
Соотношение сторон : 4:3
Частота кадров : 29,970 (30000/1001) кадров/сек
Стандарт вещания : Component
Цветовое пространство : YUV
Субдискретизация насыщенности : 4:2:0
Битовая глубина : 8 бит
Метод сжатия : С потерями
Бит/(Пиксели*Кадры) : 0.101
Временной код первого кадра : 00:00:00:00
Оригинал временного кода : Group of pictures header
Размер потока : 646 Мбайт (63%)
Библиотека кодирования : TMPGEnc 2.524.63.181
Основные цвета : BT.601 NTSC
Характеристики трансфера : BT.601
Коэффициенты матрицы : BT.601
Аудио #1
Идентификатор : 189 (0xBD)-128 (0x80)
Формат : AC-3
Формат/Информация : Audio Coding 3
Расширение режима : CM (complete main)
Параметр Endianness формата : Big
Режим смешивания : DVD-Video
Продолжительность : 26 м.
Вид битрейта : Постоянный
Битрейт : 192 Кбит/сек
Каналы : 2 канала
Расположение каналов : Front: L R
Частота : 48,0 КГц
Частота кадров : 31,250 кадров/сек (1536 spf)
Метод сжатия : С потерями
Задержка видео : -1 ч. 29 м.
Размер потока : 36,6 Мбайт (4%)
Аудио #2
Идентификатор : 189 (0xBD)-129 (0x81)
Формат : AC-3
Формат/Информация : Audio Coding 3
Расширение режима : CM (complete main)
Параметр Endianness формата : Big
Режим смешивания : DVD-Video
Продолжительность : 26 м.
Вид битрейта : Постоянный
Битрейт : 192 Кбит/сек
Каналы : 2 канала
Расположение каналов : Front: L R
Частота : 48,0 КГц
Частота кадров : 31,250 кадров/сек (1536 spf)
Метод сжатия : С потерями
Задержка видео : -1 ч. 29 м.
Размер потока : 36,6 Мбайт (4%)
Аудио #3
Идентификатор : 189 (0xBD)-130 (0x82)
Формат : AC-3
Формат/Информация : Audio Coding 3
Расширение режима : CM (complete main)
Параметр Endianness формата : Big
Режим смешивания : DVD-Video
Продолжительность : 26 м.
Вид битрейта : Постоянный
Битрейт : 192 Кбит/сек
Каналы : 2 канала
Расположение каналов : Front: L R
Частота : 48,0 КГц
Частота кадров : 31,250 кадров/сек (1536 spf)
Метод сжатия : С потерями
Задержка видео : -1 ч. 29 м.
Размер потока : 36,6 Мбайт (4%)
Текст
Идентификатор : 224 (0xE0)-CC3
Формат : EIA-608
Режим смешивания, доп. информация : Muxed in Video #1
Вид битрейта : Постоянный
Размер потока : 0,00 байт (0%)
Меню
Общее
Полное имя : C:\Users\Roman\Нация Пришельцев (Наследие Удара)\VTS_01_2.VOB
Формат : MPEG-PS
Размер файла : 1024 Мбайт
Продолжительность : 26 м.
Режим общего битрейта : Переменный
Общий поток : 5395 Кбит/сек
Видео
Идентификатор : 224 (0xE0)
Формат : MPEG Video
Версия формата : Version 2
Профиль формата : Main@Main
Параметр BVOP формата : Да
Параметр матрицы формата : Выборочная
Параметр GOP формата : Variable
Структура изображения : Frame
Продолжительность : 26 м.
Вид битрейта : Переменный
Битрейт : 4711 Кбит/сек
Максимальный битрейт : 9802 Кбит/сек
Ширина : 720 пикселей
Высота : 480 пикселей
Соотношение сторон : 4:3
Частота кадров : 29,970 (30000/1001) кадров/сек
Стандарт вещания : Component
Цветовое пространство : YUV
Субдискретизация насыщенности : 4:2:0
Битовая глубина : 8 бит
Тип развёртки : Чересстрочная
Порядок развёртки : Верхнее поле первое
Метод сжатия : С потерями
Бит/(Пиксели*Кадры) : 0.455
Временной код первого кадра : 01:26:36;20
Оригинал временного кода : Group of pictures header
Размер потока : 894 Мбайт (87%)
Основные цвета : BT.601 NTSC
Характеристики трансфера : BT.601
Коэффициенты матрицы : BT.601
Аудио #1
Идентификатор : 189 (0xBD)-128 (0x80)
Формат : AC-3
Формат/Информация : Audio Coding 3
Расширение режима : CM (complete main)
Параметр Endianness формата : Big
Режим смешивания : DVD-Video
Продолжительность : 26 м.
Вид битрейта : Постоянный
Битрейт : 192 Кбит/сек
Каналы : 2 канала
Расположение каналов : Front: L R
Частота : 48,0 КГц
Частота кадров : 31,250 кадров/сек (1536 spf)
Метод сжатия : С потерями
Задержка видео : -289 мс.
Размер потока : 36,4 Мбайт (4%)
Аудио #2
Идентификатор : 189 (0xBD)-129 (0x81)
Формат : AC-3
Формат/Информация : Audio Coding 3
Расширение режима : CM (complete main)
Параметр Endianness формата : Big
Режим смешивания : DVD-Video
Продолжительность : 26 м.
Вид битрейта : Постоянный
Битрейт : 192 Кбит/сек
Каналы : 2 канала
Расположение каналов : Front: L R
Частота : 48,0 КГц
Частота кадров : 31,250 кадров/сек (1536 spf)
Метод сжатия : С потерями
Задержка видео : -289 мс.
Размер потока : 36,4 Мбайт (4%)
Аудио #3
Идентификатор : 189 (0xBD)-130 (0x82)
Формат : AC-3
Формат/Информация : Audio Coding 3
Расширение режима : CM (complete main)
Параметр Endianness формата : Big
Режим смешивания : DVD-Video
Продолжительность : 26 м.
Вид битрейта : Постоянный
Битрейт : 192 Кбит/сек
Каналы : 2 канала
Расположение каналов : Front: L R
Частота : 48,0 КГц
Частота кадров : 31,250 кадров/сек (1536 spf)
Метод сжатия : С потерями
Задержка видео : -289 мс.
Размер потока : 36,4 Мбайт (4%)
Текст
Идентификатор : 224 (0xE0)-CC3
Формат : EIA-608
Режим смешивания, доп. информация : Muxed in Video #1
Вид битрейта : Постоянный
Размер потока : 0,00 байт (0%)
Меню
Общее
Полное имя : C:\Users\Roman\Нация Пришельцев (Наследие Удара)\VTS_01_3.VOB
Формат : MPEG-PS
Размер файла : 1024 Мбайт
Продолжительность : 26 м.
Режим общего битрейта : Переменный
Общий поток : 5372 Кбит/сек
Видео
Идентификатор : 224 (0xE0)
Формат : MPEG Video
Версия формата : Version 2
Профиль формата : Main@Main
Параметр BVOP формата : Да
Параметр матрицы формата : Выборочная
Параметр GOP формата : Variable
Структура изображения : Frame
Продолжительность : 26 м.
Вид битрейта : Переменный
Битрейт : 4689 Кбит/сек
Максимальный битрейт : 9802 Кбит/сек
Ширина : 720 пикселей
Высота : 480 пикселей
Соотношение сторон : 4:3
Частота кадров : 29,970 (30000/1001) кадров/сек
Стандарт вещания : Component
Цветовое пространство : YUV
Субдискретизация насыщенности : 4:2:0
Битовая глубина : 8 бит
Тип развёртки : Чересстрочная
Порядок развёртки : Верхнее поле первое
Метод сжатия : С потерями
Бит/(Пиксели*Кадры) : 0.453
Временной код первого кадра : 01:53:08;26
Оригинал временного кода : Group of pictures header
Размер потока : 894 Мбайт (87%)
Основные цвета : BT.601 NTSC
Характеристики трансфера : BT.601
Коэффициенты матрицы : BT.601
Аудио #1
Идентификатор : 189 (0xBD)-128 (0x80)
Формат : AC-3
Формат/Информация : Audio Coding 3
Расширение режима : CM (complete main)
Параметр Endianness формата : Big
Режим смешивания : DVD-Video
Продолжительность : 26 м.
Вид битрейта : Постоянный
Битрейт : 192 Кбит/сек
Каналы : 2 канала
Расположение каналов : Front: L R
Частота : 48,0 КГц
Частота кадров : 31,250 кадров/сек (1536 spf)
Метод сжатия : С потерями
Задержка видео : -160 мс.
Размер потока : 36,6 Мбайт (4%)
Аудио #2
Идентификатор : 189 (0xBD)-129 (0x81)
Формат : AC-3
Формат/Информация : Audio Coding 3
Расширение режима : CM (complete main)
Параметр Endianness формата : Big
Режим смешивания : DVD-Video
Продолжительность : 26 м.
Вид битрейта : Постоянный
Битрейт : 192 Кбит/сек
Каналы : 2 канала
Расположение каналов : Front: L R
Частота : 48,0 КГц
Частота кадров : 31,250 кадров/сек (1536 spf)
Метод сжатия : С потерями
Задержка видео : -160 мс.
Размер потока : 36,6 Мбайт (4%)
Аудио #3
Идентификатор : 189 (0xBD)-130 (0x82)
Формат : AC-3
Формат/Информация : Audio Coding 3
Расширение режима : CM (complete main)
Параметр Endianness формата : Big
Режим смешивания : DVD-Video
Продолжительность : 26 м.
Вид битрейта : Постоянный
Битрейт : 192 Кбит/сек
Каналы : 2 канала
Расположение каналов : Front: L R
Частота : 48,0 КГц
Частота кадров : 31,250 кадров/сек (1536 spf)
Метод сжатия : С потерями
Задержка видео : -160 мс.
Размер потока : 36,6 Мбайт (4%)
Текст
Идентификатор : 224 (0xE0)-CC3
Формат : EIA-608
Режим смешивания, доп. информация : Muxed in Video #1
Вид битрейта : Постоянный
Размер потока : 0,00 байт (0%)
Меню
Общее
Полное имя : C:\Users\Roman\Нация Пришельцев (Наследие Удара)\VTS_01_4.VOB
Формат : MPEG-PS
Размер файла : 400 Мбайт
Продолжительность : 9 м. 58 с.
Режим общего битрейта : Переменный
Общий поток : 5601 Кбит/сек
Видео
Идентификатор : 224 (0xE0)
Формат : MPEG Video
Версия формата : Version 2
Профиль формата : Main@Main
Параметр BVOP формата : Да
Параметр матрицы формата : Выборочная
Параметр GOP формата : Variable
Структура изображения : Frame
Продолжительность : 9 м. 58 с.
Вид битрейта : Переменный
Битрейт : 4914 Кбит/сек
Максимальный битрейт : 9802 Кбит/сек
Ширина : 720 пикселей
Высота : 480 пикселей
Соотношение сторон : 4:3
Частота кадров : 29,970 (30000/1001) кадров/сек
Стандарт вещания : Component
Цветовое пространство : YUV
Субдискретизация насыщенности : 4:2:0
Битовая глубина : 8 бит
Тип развёртки : Чересстрочная
Порядок развёртки : Верхнее поле первое
Метод сжатия : С потерями
Бит/(Пиксели*Кадры) : 0.474
Временной код первого кадра : 02:19:48;12
Оригинал временного кода : Group of pictures header
Размер потока : 350 Мбайт (88%)
Основные цвета : BT.601 NTSC
Характеристики трансфера : BT.601
Коэффициенты матрицы : BT.601
Аудио #1
Идентификатор : 189 (0xBD)-128 (0x80)
Формат : AC-3
Формат/Информация : Audio Coding 3
Расширение режима : CM (complete main)
Параметр Endianness формата : Big
Режим смешивания : DVD-Video
Продолжительность : 9 м. 58 с.
Вид битрейта : Постоянный
Битрейт : 192 Кбит/сек
Каналы : 2 канала
Расположение каналов : Front: L R
Частота : 48,0 КГц
Частота кадров : 31,250 кадров/сек (1536 spf)
Метод сжатия : С потерями
Задержка видео : -457 мс.
Размер потока : 13,7 Мбайт (3%)
Аудио #2
Идентификатор : 189 (0xBD)-129 (0x81)
Формат : AC-3
Формат/Информация : Audio Coding 3
Расширение режима : CM (complete main)
Параметр Endianness формата : Big
Режим смешивания : DVD-Video
Продолжительность : 9 м. 58 с.
Вид битрейта : Постоянный
Битрейт : 192 Кбит/сек
Каналы : 2 канала
Расположение каналов : Front: L R
Частота : 48,0 КГц
Частота кадров : 31,250 кадров/сек (1536 spf)
Метод сжатия : С потерями
Задержка видео : -457 мс.
Размер потока : 13,7 Мбайт (3%)
Аудио #3
Идентификатор : 189 (0xBD)-130 (0x82)
Формат : AC-3
Формат/Информация : Audio Coding 3
Расширение режима : CM (complete main)
Параметр Endianness формата : Big
Режим смешивания : DVD-Video
Продолжительность : 9 м. 58 с.
Вид битрейта : Постоянный
Битрейт : 192 Кбит/сек
Каналы : 2 канала
Расположение каналов : Front: L R
Частота : 48,0 КГц
Частота кадров : 31,250 кадров/сек (1536 spf)
Метод сжатия : С потерями
Задержка видео : -457 мс.
Размер потока : 13,7 Мбайт (3%)
Текст
Идентификатор : 224 (0xE0)-CC3
Формат : EIA-608
Режим смешивания, доп. информация : Muxed in Video #1
Вид битрейта : Постоянный
Размер потока : 0,00 байт (0%)
Меню
Общее
Полное имя : C:\Users\Roman\Нация Пришельцев (Наследие Удара)\VTS_02_0.BUP
Формат : DVD Video
Профиль формата : Program
Размер файла : 14,0 Кбайт
Продолжительность : 7 с. 400 мс.
Режим общего битрейта : Переменный
Общий поток : 15,5 Кбит/сек
Видео
Идентификатор : 224 (0xE0)
Формат : MPEG Video
Версия формата : Version 2
Продолжительность : 7 с. 407 мс.
Вид битрейта : Переменный
Битрейт : 7984 бит/сек
Ширина : 720 пикселей
Высота : 480 пикселей
Соотношение сторон : 4:3
Частота кадров : 29,970 (29970/1000) кадров/сек
Стандарт вещания : NTSC
Метод сжатия : С потерями
Бит/(Пиксели*Кадры) : 0.001
Размер потока : 7,22 Кбайт (52%)
Меню #1
Продолжительность : 7 с. 400 мс.
00:00:00.000 : Chapter 1
00:00:07.000 : Chapter 2
Меню #2
Продолжительность : 800 мс.
00:00:00.000 : Chapter 1
00:00:00.400 : Chapter 2
Меню #3
Продолжительность : 7 с. 400 мс.
00:00:00.000 : Chapter 1
00:00:07.000 : Chapter 2
Общее
Полное имя : C:\Users\Roman\Нация Пришельцев (Наследие Удара)\VTS_02_0.IFO
Формат : DVD Video
Профиль формата : Program
Размер файла : 14,0 Кбайт
Продолжительность : 7 с. 400 мс.
Режим общего битрейта : Переменный
Общий поток : 15,5 Кбит/сек
Видео
Идентификатор : 224 (0xE0)
Формат : MPEG Video
Версия формата : Version 2
Продолжительность : 7 с. 407 мс.
Вид битрейта : Переменный
Битрейт : 7984 бит/сек
Ширина : 720 пикселей
Высота : 480 пикселей
Соотношение сторон : 4:3
Частота кадров : 29,970 (29970/1000) кадров/сек
Стандарт вещания : NTSC
Метод сжатия : С потерями
Бит/(Пиксели*Кадры) : 0.001
Размер потока : 7,22 Кбайт (52%)
Меню #1
Продолжительность : 7 с. 400 мс.
00:00:00.000 : Chapter 1
00:00:07.000 : Chapter 2
Меню #2
Продолжительность : 800 мс.
00:00:00.000 : Chapter 1
00:00:00.400 : Chapter 2
Меню #3
Продолжительность : 7 с. 400 мс.
00:00:00.000 : Chapter 1
00:00:07.000 : Chapter 2
Общее
Полное имя : C:\Users\Roman\Нация Пришельцев (Наследие Удара)\VTS_02_1.VOB
Формат : MPEG-PS
Размер файла : 284 Кбайт
Продолжительность : 400 мс.
Общий поток : 5816 Кбит/сек
Библиотека кодирования : encoded by TMPGEnc (ver. 2.524.63.181)
Видео
Идентификатор : 224 (0xE0)
Формат : MPEG Video
Версия формата : Version 2
Профиль формата : Main@Main
Параметр BVOP формата : Нет
Параметр матрицы формата : Выборочная
Продолжительность : 400 мс.
Ширина : 720 пикселей
Высота : 480 пикселей
Соотношение сторон : 4:3
Частота кадров : 29,970 (30000/1001) кадров/сек
Стандарт вещания : NTSC
Цветовое пространство : YUV
Субдискретизация насыщенности : 4:2:0
Битовая глубина : 8 бит
Тип развёртки : Прогрессивная
Метод сжатия : С потерями
Библиотека кодирования : TMPGEnc 2.524.63.181
Основные цвета : BT.601 NTSC
Характеристики трансфера : BT.601
Коэффициенты матрицы : BT.601
Меню
Общее
Полное имя : C:\Users\Roman\Нация Пришельцев (Наследие Удара)\VTS_03_0.BUP
Формат : DVD Video
Профиль формата : Program
Размер файла : 14,0 Кбайт
Продолжительность : 15 с.
Режим общего битрейта : Переменный
Общий поток : 7612 бит/сек
Видео
Идентификатор : 224 (0xE0)
Формат : MPEG Video
Версия формата : Version 2
Продолжительность : 15 с.
Вид битрейта : Переменный
Ширина : 720 пикселей
Высота : 480 пикселей
Соотношение сторон : 4:3
Частота кадров : 29,970 (29970/1000) кадров/сек
Стандарт вещания : NTSC
Метод сжатия : С потерями
Аудио
Идентификатор : 128 (0x80)
Формат : AC-3
Формат/Информация : Audio Coding 3
Продолжительность : 15 с.
Каналы : 6 каналов
Частота : 48,0 КГц
Метод сжатия : С потерями
Язык : English
Меню #1
Продолжительность : 15 с.
00:00:00.000 : Chapter 1
00:00:14.666 : Chapter 2
List (Audio) : 0
Меню #2
Продолжительность : 7 с. 900 мс.
00:00:00.000 : Chapter 1
00:00:07.500 : Chapter 2
Общее
Полное имя : C:\Users\Roman\Нация Пришельцев (Наследие Удара)\VTS_03_0.IFO
Формат : DVD Video
Профиль формата : Program
Размер файла : 14,0 Кбайт
Продолжительность : 15 с.
Режим общего битрейта : Переменный
Общий поток : 7612 бит/сек
Видео
Идентификатор : 224 (0xE0)
Формат : MPEG Video
Версия формата : Version 2
Продолжительность : 15 с.
Вид битрейта : Переменный
Ширина : 720 пикселей
Высота : 480 пикселей
Соотношение сторон : 4:3
Частота кадров : 29,970 (29970/1000) кадров/сек
Стандарт вещания : NTSC
Метод сжатия : С потерями
Аудио
Идентификатор : 128 (0x80)
Формат : AC-3
Формат/Информация : Audio Coding 3
Продолжительность : 15 с.
Каналы : 6 каналов
Частота : 48,0 КГц
Метод сжатия : С потерями
Язык : English
Меню #1
Продолжительность : 15 с.
00:00:00.000 : Chapter 1
00:00:14.666 : Chapter 2
List (Audio) : 0
Меню #2
Продолжительность : 7 с. 900 мс.
00:00:00.000 : Chapter 1
00:00:07.500 : Chapter 2
Общее
Полное имя : C:\Users\Roman\Нация Пришельцев (Наследие Удара)\VTS_03_1.VOB
Формат : MPEG-PS
Размер файла : 16,9 Мбайт
Продолжительность : 7 с. 508 мс.
Режим общего битрейта : Переменный
Общий поток : 18,8 Мбит/сек
Библиотека кодирования : encoded by TMPGEnc (ver. 2.524.63.181)
Видео
Идентификатор : 224 (0xE0)
Формат : MPEG Video
Версия формата : Version 2
Профиль формата : Main@Main
Параметр BVOP формата : Да
Параметр матрицы формата : Выборочная
Параметр GOP формата : Variable
Продолжительность : 7 с. 508 мс.
Вид битрейта : Переменный
Битрейт : 18,0 Мбит/сек
Ширина : 720 пикселей
Высота : 480 пикселей
Соотношение сторон : 4:3
Частота кадров : 23,976 (24000/1001) кадра/сек
Стандарт вещания : Component
Цветовое пространство : YUV
Субдискретизация насыщенности : 4:2:0
Битовая глубина : 8 бит
Тип развёртки : Прогрессивная
Порядок развёртки : 2:3 Pulldown
Метод сжатия : С потерями
Бит/(Пиксели*Кадры) : 2.175
Временной код первого кадра : 00:00:00:00
Оригинал временного кода : Group of pictures header
Размер потока : 16,1 Мбайт (96%)
Библиотека кодирования : TMPGEnc 2.524.63.181
Основные цвета : BT.601 NTSC
Характеристики трансфера : BT.601
Коэффициенты матрицы : BT.601
Аудио
Идентификатор : 189 (0xBD)-128 (0x80)
Формат : AC-3
Формат/Информация : Audio Coding 3
Расширение режима : CM (complete main)
Параметр Endianness формата : Big
Режим смешивания : DVD-Video
Продолжительность : 7 с. 508 мс.
Вид битрейта : Постоянный
Битрейт : 448 Кбит/сек
Каналы : 6 каналов
Расположение каналов : Front: L C R, Side: L R, LFE
Частота : 48,0 КГц
Частота кадров : 31,250 кадров/сек (1536 spf)
Метод сжатия : С потерями
Размер потока : 411 Кбайт (2%)
Меню
Общее
Полное имя : C:\Users\Roman\Нация Пришельцев (Наследие Удара)\VTS_04_0.BUP
Формат : DVD Video
Профиль формата : Program
Размер файла : 28,0 Кбайт
Продолжительность : 25 м.
Режим общего битрейта : Переменный
Общий поток : 153 бит/сек
Видео
Идентификатор : 224 (0xE0)
Формат : MPEG Video
Версия формата : Version 2
Продолжительность : 25 м.
Вид битрейта : Переменный
Ширина : 720 пикселей
Высота : 480 пикселей
Соотношение сторон : 4:3
Частота кадров : 29,970 (29970/1000) кадров/сек
Стандарт вещания : NTSC
Метод сжатия : С потерями
Аудио
Идентификатор : 128 (0x80)
Формат : AC-3
Формат/Информация : Audio Coding 3
Продолжительность : 25 м.
Каналы : 2 канала
Частота : 48,0 КГц
Метод сжатия : С потерями
Язык : English
Меню
Продолжительность : 25 м.
00:00:00.000 : Chapter 1
00:25:02.000 : Chapter 2
List (Audio) : 0
Общее
Полное имя : C:\Users\Roman\Нация Пришельцев (Наследие Удара)\VTS_04_0.IFO
Формат : DVD Video
Профиль формата : Program
Размер файла : 28,0 Кбайт
Продолжительность : 25 м.
Режим общего битрейта : Переменный
Общий поток : 153 бит/сек
Видео
Идентификатор : 224 (0xE0)
Формат : MPEG Video
Версия формата : Version 2
Продолжительность : 25 м.
Вид битрейта : Переменный
Ширина : 720 пикселей
Высота : 480 пикселей
Соотношение сторон : 4:3
Частота кадров : 29,970 (29970/1000) кадров/сек
Стандарт вещания : NTSC
Метод сжатия : С потерями
Аудио
Идентификатор : 128 (0x80)
Формат : AC-3
Формат/Информация : Audio Coding 3
Продолжительность : 25 м.
Каналы : 2 канала
Частота : 48,0 КГц
Метод сжатия : С потерями
Язык : English
Меню
Продолжительность : 25 м.
00:00:00.000 : Chapter 1
00:25:02.000 : Chapter 2
List (Audio) : 0
Общее
Полное имя : C:\Users\Roman\Нация Пришельцев (Наследие Удара)\VTS_04_1.VOB
Формат : MPEG-PS
Размер файла : 791 Мбайт
Продолжительность : 25 м.
Режим общего битрейта : Переменный
Общий поток : 4414 Кбит/сек
Библиотека кодирования : encoded by TMPGEnc (ver. 2.524.63.181)
Видео
Идентификатор : 224 (0xE0)
Формат : MPEG Video
Версия формата : Version 2
Профиль формата : Main@Main
Параметр BVOP формата : Да
Параметр матрицы формата : Выборочная
Параметр GOP формата : Variable
Продолжительность : 25 м.
Вид битрейта : Переменный
Битрейт : 4134 Кбит/сек
Ширина : 720 пикселей
Высота : 480 пикселей
Соотношение сторон : 4:3
Частота кадров : 29,970 (30000/1001) кадров/сек
Стандарт вещания : Component
Цветовое пространство : YUV
Субдискретизация насыщенности : 4:2:0
Битовая глубина : 8 бит
Метод сжатия : С потерями
Бит/(Пиксели*Кадры) : 0.399
Временной код первого кадра : 00:00:00:00
Оригинал временного кода : Group of pictures header
Размер потока : 741 Мбайт (94%)
Библиотека кодирования : TMPGEnc 2.524.63.181
Основные цвета : BT.601 NTSC
Характеристики трансфера : BT.601
Коэффициенты матрицы : BT.601
Аудио
Идентификатор : 189 (0xBD)-128 (0x80)
Формат : AC-3
Формат/Информация : Audio Coding 3
Расширение режима : CM (complete main)
Параметр Endianness формата : Big
Режим смешивания : DVD-Video
Продолжительность : 25 м.
Вид битрейта : Постоянный
Битрейт : 192 Кбит/сек
Каналы : 2 канала
Расположение каналов : Front: L R
Частота : 48,0 КГц
Частота кадров : 31,250 кадров/сек (1536 spf)
Метод сжатия : С потерями
Размер потока : 34,4 Мбайт (4%)
Меню
Общее
Полное имя : C:\Users\Roman\Нация Пришельцев (Наследие Удара)\VTS_05_0.BUP
Формат : DVD Video
Профиль формата : Program
Размер файла : 18,0 Кбайт
Продолжительность : 18 с.
Режим общего битрейта : Переменный
Общий поток : 8192 бит/сек
Видео
Идентификатор : 224 (0xE0)
Формат : MPEG Video
Версия формата : Version 2
Продолжительность : 17 с.
Вид битрейта : Переменный
Ширина : 720 пикселей
Высота : 480 пикселей
Соотношение сторон : 4:3
Частота кадров : 29,970 (29970/1000) кадров/сек
Стандарт вещания : NTSC
Метод сжатия : С потерями
Текст
Идентификатор : 32 (0x20)
Формат : RLE
Формат/Информация : Run-length encoding
Битовая глубина : 2 бит
Меню #1
Продолжительность : 500 мс.
00:00:00.000 : Chapter 1
List (Subtitles 4/3) : 0
List (Subtitles Wide) : 0
List (Subtitles Letterbox) : 0
List (Subtitles Pan&Scan) : 0
Меню #2
Продолжительность : 18 с.
00:00:00.000 : Chapter 1
00:00:00.500 : Chapter 2
00:00:01.000 : Chapter 3
00:00:01.500 : Chapter 4
00:00:02.000 : Chapter 5
00:00:02.500 : Chapter 6
00:00:03.000 : Chapter 7
00:00:03.500 : Chapter 8
00:00:04.000 : Chapter 9
00:00:04.500 : Chapter 10
00:00:05.000 : Chapter 11
00:00:05.500 : Chapter 12
00:00:06.000 : Chapter 13
00:00:06.500 : Chapter 14
00:00:07.000 : Chapter 15
00:00:07.500 : Chapter 16
00:00:08.000 : Chapter 17
00:00:08.500 : Chapter 18
00:00:09.000 : Chapter 19
00:00:09.500 : Chapter 20
00:00:10.000 : Chapter 21
00:00:10.500 : Chapter 22
00:00:11.000 : Chapter 23
00:00:11.500 : Chapter 24
00:00:12.000 : Chapter 25
00:00:12.500 : Chapter 26
00:00:13.000 : Chapter 27
00:00:13.500 : Chapter 28
00:00:14.000 : Chapter 29
00:00:14.500 : Chapter 30
00:00:15.000 : Chapter 31
00:00:15.500 : Chapter 32
00:00:16.000 : Chapter 33
00:00:16.500 : Chapter 34
00:00:17.000 : Chapter 35
00:00:17.500 : Chapter 36
List (Subtitles 4/3) : 0
List (Subtitles Wide) : 0
List (Subtitles Letterbox) : 0
List (Subtitles Pan&Scan) : 0
Меню #3
Продолжительность : 400 мс.
00:00:00.000 : Chapter 1
List (Subtitles 4/3) : 0
List (Subtitles Wide) : 0
List (Subtitles Letterbox) : 0
List (Subtitles Pan&Scan) : 0
Общее
Полное имя : C:\Users\Roman\Нация Пришельцев (Наследие Удара)\VTS_05_0.IFO
Формат : DVD Video
Профиль формата : Program
Размер файла : 18,0 Кбайт
Продолжительность : 18 с.
Режим общего битрейта : Переменный
Общий поток : 8192 бит/сек
Видео
Идентификатор : 224 (0xE0)
Формат : MPEG Video
Версия формата : Version 2
Продолжительность : 17 с.
Вид битрейта : Переменный
Ширина : 720 пикселей
Высота : 480 пикселей
Соотношение сторон : 4:3
Частота кадров : 29,970 (29970/1000) кадров/сек
Стандарт вещания : NTSC
Метод сжатия : С потерями
Текст
Идентификатор : 32 (0x20)
Формат : RLE
Формат/Информация : Run-length encoding
Битовая глубина : 2 бит
Меню #1
Продолжительность : 500 мс.
00:00:00.000 : Chapter 1
List (Subtitles 4/3) : 0
List (Subtitles Wide) : 0
List (Subtitles Letterbox) : 0
List (Subtitles Pan&Scan) : 0
Меню #2
Продолжительность : 18 с.
00:00:00.000 : Chapter 1
00:00:00.500 : Chapter 2
00:00:01.000 : Chapter 3
00:00:01.500 : Chapter 4
00:00:02.000 : Chapter 5
00:00:02.500 : Chapter 6
00:00:03.000 : Chapter 7
00:00:03.500 : Chapter 8
00:00:04.000 : Chapter 9
00:00:04.500 : Chapter 10
00:00:05.000 : Chapter 11
00:00:05.500 : Chapter 12
00:00:06.000 : Chapter 13
00:00:06.500 : Chapter 14
00:00:07.000 : Chapter 15
00:00:07.500 : Chapter 16
00:00:08.000 : Chapter 17
00:00:08.500 : Chapter 18
00:00:09.000 : Chapter 19
00:00:09.500 : Chapter 20
00:00:10.000 : Chapter 21
00:00:10.500 : Chapter 22
00:00:11.000 : Chapter 23
00:00:11.500 : Chapter 24
00:00:12.000 : Chapter 25
00:00:12.500 : Chapter 26
00:00:13.000 : Chapter 27
00:00:13.500 : Chapter 28
00:00:14.000 : Chapter 29
00:00:14.500 : Chapter 30
00:00:15.000 : Chapter 31
00:00:15.500 : Chapter 32
00:00:16.000 : Chapter 33
00:00:16.500 : Chapter 34
00:00:17.000 : Chapter 35
00:00:17.500 : Chapter 36
List (Subtitles 4/3) : 0
List (Subtitles Wide) : 0
List (Subtitles Letterbox) : 0
List (Subtitles Pan&Scan) : 0
Меню #3
Продолжительность : 400 мс.
00:00:00.000 : Chapter 1
List (Subtitles 4/3) : 0
List (Subtitles Wide) : 0
List (Subtitles Letterbox) : 0
List (Subtitles Pan&Scan) : 0
Общее
Полное имя : C:\Users\Roman\Нация Пришельцев (Наследие Удара)\VTS_05_1.VOB
Формат : MPEG-PS
Размер файла : 8,90 Мбайт
Продолжительность : 400 мс.
Общий поток : 187 Мбит/сек
Библиотека кодирования : encoded by TMPGEnc (ver. 2.524.63.181)
Видео
Идентификатор : 224 (0xE0)
Формат : MPEG Video
Версия формата : Version 2
Профиль формата : Main@Main
Параметр BVOP формата : Нет
Параметр матрицы формата : Выборочная
Параметр GOP формата : N=1
Продолжительность : 400 мс.
Ширина : 720 пикселей
Высота : 480 пикселей
Соотношение сторон : 4:3
Частота кадров : 29,970 (30000/1001) кадров/сек
Стандарт вещания : NTSC
Цветовое пространство : YUV
Субдискретизация насыщенности : 4:2:0
Битовая глубина : 8 бит
Тип развёртки : Прогрессивная
Метод сжатия : С потерями
Библиотека кодирования : TMPGEnc 2.524.63.181
Основные цвета : BT.601 NTSC
Характеристики трансфера : BT.601
Коэффициенты матрицы : BT.601
Текст
Идентификатор : 189 (0xBD)-32 (0x20)
Формат : RLE
Формат/Информация : Run-length encoding
Режим смешивания : DVD-Video
Меню

Скриншот c названием фильма

Скриншоты



cd Рип дополнительно залит на ОБЛАКО cd2
[Profile] [PM]

CROM@G ®

Gender: Male

Longevity: 4 years 6 months

Posts: 3186

Location: Прибалтика

Post 10-Sep-2016 14:55 (after 4 minutes)

[Quote]

Кажись разобрались с пришельцами Спасибо всем причастным
[Profile] [PM]

CROM@G ®

Gender: Male

Longevity: 4 years 6 months

Posts: 3186

Location: Прибалтика

Post 10-Sep-2016 15:46 (after 51 minute)

[Quote]

Нихера не понимаю Раздается или нет ?
[Profile] [PM]

admin

Gender: Male

Longevity: 7 years 7 months

Posts: 4811

Post 10-Sep-2016 16:50 (after 1 hour 4 minutes)

[Quote]

Раздается, но херово - 200 кбит
[Profile] [PM]
Display posts:    
Reply to topic

Current time is: 04-Apr 08:13

All times are UTC + 3



You cannot post new topics in this forum
You cannot reply to topics in this forum
You cannot edit your posts in this forum
You cannot delete your posts in this forum
You cannot vote in polls in this forum
You cannot attach files in this forum
You cannot download files in this forum