Дикарь Ига / Eegah (Арч Холл ст. / Arch Hall Sr. (as Nicholas Merriwether) [1962, США, Фантастика. драма, DVDRip] ЛО (den904), СТ (kosmoaelita-karlivanovich)

Reply to topic
 
Author Message

admin ®

Gender: Male

Longevity: 6 years 8 months

Posts: 4725

Location: Україна

Post 07-Sep-2016 09:12

[Quote]

Дикарь Ига / Eegah
Страна: США, Fairway International Pictures
Жанр: Фантастика. драма
Год выпуска: 1962
Продолжительность: 01:30:27
Перевод: ЛО den904 по субтитрам от (kosmoaelita-karlivanovich)
Режиссер: Арч Холл ст. / Arch Hall Sr. (as Nicholas Merriwether)
В ролях:
Arch Hall Jr. ...Tom Nelson
Marilyn Manning ...Roxy Miller
Richard Kiel ...Eegah
Arch Hall Sr. ...Robert Miller (as William Watters)
Clay Stearns ...Band Member
Bob Davis ...George
Deke Richards ...Band Member (as Deke Lussier)
Ron Shane ...Detective
Addalyn Pollitt ...George's Wife
Lloyd Williams ...Kruger (as William Lloyd)
Ray Dennis Steckler ...Mr. Fishman (as Ray Steckler)
Bill Rice ...Chef
Описание: Девушка Рокси путешествует на машине по пустыне и неожиданно встречает огромного неандертальца. Она в ужасе убегает и рассказывает о встрече своему другу Тому. Тот, естественно, не верит Рокси, и они вместе отправляются на то место. Они обнаруживают на песке отпечаток огромной ноги. Вечером дикарь пробирается в дом, где остановились молодые люди и похищает спящую Рокси...
Релиз

Качество: DVDRip
Формат: MKV
Видео: x264, 1536 кбит/с, 696x478, 23.976 к/с
Аудио 1: Русский ЛО (den904) (AC3, 2 ch, 192 Кбит/с)
Аудио 2: Английский (AC3, 2 ch, 192 Кбит/с)
Субтитры : Русские (karlivanovich)
Работа над релизом:
Релиз kosmoaelita.
Видеоряд найден на Синемагеддоне.
Перевод на слух с англ. по заказу kosmoaelita - karlivanovich
Русская озвучка по заказу kosmoaelita - den904
Спонсор русской озвучки - Андрей Берг



Пример русских субтитров

Дополнительно

слоган «The Crazed Love of a Prehistoric Giant for a Ravishing Teenage Girl!»
бюджет $15 000
Also Known As (AKA)
(original title) Eegah
Eegah! The Name Written in Blood
Mexico Egah el gigante
Soviet Union (Russian title) Дикарь
USA (poster title) Eegah!
Формат изображения: 1.66 : 1
Формат копии: 35 mm
Формат съёмок: 35 mm
Изображение: цветное
Язык: английский

Знаете ли вы, что...

Отзывы

Рецензия

MediaInfo

Общее
Уникальный идентификатор : 235009617993484197468289961875273623317 (0xB0CD34BFC6974B07A6CC5E9EEE072715)
Полное имя : N:\Eegah 1962.x264.DVDRip.Rus.kosmoaelita.mkv
Формат : Matroska
Версия формата : Version 4 / Version 2
Размер файла : 1,22 Гбайт
Продолжительность : 1 ч. 30 м.
Общий поток : 1924 Кбит/сек
Название фильма : Eegah - Дикарь Ига / 1962 / Релиз kosmoaelita
Дата кодирования : UTC 2016-12-23 21:18:28
Программа кодирования : mkvmerge v6.6.0 ('The Edge Of The In Between') built on Dec 1 2013 17:55:00
Библиотека кодирования : libebml v1.3.0 + libmatroska v1.4.1
Attachments : Poster Eegah 1962.jpeg
Видео
Идентификатор : 1
Формат : AVC
Формат/Информация : Advanced Video Codec
Профиль формата : High@L4.1
Параметр CABAC формата : Да
Параметр ReFrames формата : 16 кадров
Идентификатор кодека : V_MPEG4/ISO/AVC
Продолжительность : 1 ч. 30 м.
Битрейт : 1536 Кбит/сек
Ширина : 696 пикселей
Высота : 478 пикселей
Соотношение сторон : 4:3
Соотношение сторон в оригинале : 4:3
Режим частоты кадров : Постоянный
Частота кадров : 23,976 (24000/1001) кадра/сек
Цветовое пространство : YUV
Субдискретизация насыщенности : 4:2:0
Битовая глубина : 8 бит
Тип развёртки : Прогрессивная
Бит/(Пиксели*Кадры) : 0.193
Размер потока : 972 Мбайт (78%)
Заголовок : kosmoaelita
Библиотека кодирования : x264 core 128 r2216 198a7ea
Настройки программы : cabac=1 / ref=16 / deblock=1:-2:-1 / analyse=0x3:0x133 / me=umh / subme=10 / psy=1 / psy_rd=1.20:0.15 / mixed_ref=1 / me_range=24 / chroma_me=1 / trellis=2 / 8x8dct=1 / cqm=0 / deadzone=21,11 / fast_pskip=0 / chroma_qp_offset=-3 / threads=6 / lookahead_threads=1 / sliced_threads=0 / nr=0 / decimate=0 / interlaced=0 / bluray_compat=0 / constrained_intra=0 / bframes=8 / b_pyramid=2 / b_adapt=2 / b_bias=0 / direct=3 / weightb=1 / open_gop=0 / weightp=2 / keyint=250 / keyint_min=23 / scenecut=40 / intra_refresh=0 / rc_lookahead=60 / rc=2pass / mbtree=1 / bitrate=1536 / ratetol=1.0 / qcomp=0.60 / qpmin=0 / qpmax=69 / qpstep=4 / cplxblur=20.0 / qblur=0.5 / ip_ratio=1.40 / aq=1:0.80
Язык : English
Default : Да
Forced : Нет
Аудио #1
Идентификатор : 2
Формат : AC-3
Формат/Информация : Audio Coding 3
Расширение режима : CM (complete main)
Параметр Endianness формата : Big
Идентификатор кодека : A_AC3
Продолжительность : 1 ч. 30 м.
Вид битрейта : Постоянный
Битрейт : 192 Кбит/сек
Каналы : 2 канала
Расположение каналов : Front: L R
Частота : 48,0 КГц
Частота кадров : 31,250 кадров/сек (1536 spf)
Метод сжатия : С потерями
Размер потока : 124 Мбайт (10%)
Заголовок : Русский ЛО (den904 для kosmoaelita.com) - поддержка А.Берг
Язык : Russian
Default : Да
Forced : Нет
Аудио #2
Идентификатор : 3
Формат : AC-3
Формат/Информация : Audio Coding 3
Расширение режима : CM (complete main)
Параметр Endianness формата : Big
Идентификатор кодека : A_AC3
Продолжительность : 1 ч. 30 м.
Вид битрейта : Постоянный
Битрейт : 192 Кбит/сек
Каналы : 2 канала
Расположение каналов : Front: L R
Частота : 48,0 КГц
Частота кадров : 31,250 кадров/сек (1536 spf)
Метод сжатия : С потерями
Размер потока : 124 Мбайт (10%)
Язык : English
Default : Нет
Forced : Нет
Текст #1
Идентификатор : 4
Формат : VobSub
Режим смешивания : zlib
Идентификатор кодека : S_VOBSUB
Идентификатор кодека/Информация : Picture based subtitle format used on DVDs
Заголовок : Русский (kosmoaelita-karlivanovich) VobSub - перевод на слух с англ.
Язык : Russian
Default : Да
Forced : Нет
Текст #2
Идентификатор : 5
Формат : VobSub
Режим смешивания : zlib
Идентификатор кодека : S_VOBSUB
Идентификатор кодека/Информация : Picture based subtitle format used on DVDs
Заголовок : Русский (kosmoaelita-karlivanovich) VobSub - перевод на слух с англ.
Язык : Russian
Default : Нет
Forced : Нет
Текст #3
Идентификатор : 6
Формат : UTF-8
Идентификатор кодека : S_TEXT/UTF8
Идентификатор кодека/Информация : UTF-8 Plain Text
Заголовок : Русский (kosmoaelita-karlivanovich) srt - перевод на слух с англ.
Язык : Russian
Default : Нет
Forced : Нет

Пример субтитров

1
00:00:05,897 --> 00:00:10,000
Релиз
www.kosmoaelita.com
2
00:00:22,869 --> 00:00:28,939
"Дикарь Ига"
(Eegah, 1962г)
3
00:00:30,299 --> 00:00:33,011
Перевод karlivanovich
для сайта kosmoaelita.com
4
00:00:34,501 --> 00:00:38,146
В ролях:
АРЧ ХОЛЛ МЛ. - Том
5
00:00:41,419 --> 00:00:45,290
МЭРИЛИН МЭННИНГ - Рокси
6
00:00:46,440 --> 00:00:53,156
РИЧАРД КИЛ - Ига
7
00:01:49,371 --> 00:01:56,771
продюсер и режиссёр
НИКОЛАС МЕРРИВЕЗЕР
8
00:02:54,292 --> 00:02:58,857
Привет, Рокси, что ты тут делаешь,
я думал, мы встретимся клубе?
9
00:02:59,089 --> 00:03:02,566
А как же, я специально
купила купальник.
--------------------
520
01:29:35,180 --> 01:29:37,180
Да, он был настоящий.
521
01:29:37,835 --> 01:29:41,320
Так и написано в Книге Бытия.
522
01:29:42,081 --> 01:29:45,878
"Тогда жили на Земле гиганты. "
523
01:29:46,427 --> 01:29:49,524
Глава 4, стих 32.
524
01:29:56,627 --> 01:30:03,524
КОНЕЦ
525
01:30:05,627 --> 01:30:09,524
Перевод на слух с англ.
по заказу kosmoaelita: karlivanovich
сентябрь, 2016 года

Скриншоты

Скринлист

[Profile] [PM]

kosmoaelita

Gender: Male

Longevity: 6 years 8 months

Posts: 965

Location: Украина

Post 23-Dec-2016 23:24 (after 3 months 16 days)

[Quote]

Добавлена русская озвучка от den904
[Profile] [PM]

croMAG

Gender: Male

Longevity: 3 years 8 months

Posts: 2137

Location: Прибалтика

Post 23-Dec-2016 23:40 (after 15 minutes)

[Quote]

А мульт мой где едрен-батон bg
[Profile] [PM]

kosmoaelita

Gender: Male

Longevity: 6 years 8 months

Posts: 965

Location: Украина

Post 23-Dec-2016 23:54 (after 14 minutes)

[Quote]

В очереди после Рептиликуса будет.
Я болею . а Ден звучит. как автомат ab
[Profile] [PM]

croMAG

Gender: Male

Longevity: 3 years 8 months

Posts: 2137

Location: Прибалтика

Post 24-Dec-2016 00:26 (after 32 minutes)

[Quote]

Знаю что болеешь Но мульт первее был озвучен bg
[Profile] [PM]
Display posts:    
Reply to topic

Current time is: 27-May 06:38

All times are UTC + 3



You cannot post new topics in this forum
You cannot reply to topics in this forum
You cannot edit your posts in this forum
You cannot delete your posts in this forum
You cannot vote in polls in this forum
You cannot attach files in this forum
You cannot download files in this forum