Плазмо / Plasmo / Сериал s01e01-13x13 (Энтони Лоуренс / Anthony Lawrence) [1997, Австралия, Фантастика, DVDRip] ЛО (den904), СТ (kosmoaelita-karlivanovich)

Ответить на тему
 
Автор Сообщение

$Shorox ®

Пол: Мужской

Стаж: 5 лет 11 месяцев

Сообщений: 1888

Создавать темы 31-Авг-2016 08:40

[Цитировать]

Плазмо / Plasmo
Страна: Австралия
Жанр: Фантастика
Год выпуска: 1997
Продолжительность: 01:02:02 = 00:05:00 x 13
Перевод: ЛО den904 по субтитрам от (kosmoaelita-karlivanovich)
Режиссер: Энтони Лоуренс / Anthony Lawrence
В ролях: Abbe Holmes, Pia Morley, Phillip Houghton, Vivien Davies, Simon Watt
Описание: Австралийский фантастический мультсериал. Про мелких инопланетных тварей, заблудившихся в просторах Вселенной. Для детей.
Дополнительная информация:
Все 13 серий объединены в этой раздаче в один файл.
https://en.wikipedia.org/wiki/Plasmo
http://www.plasmotv.com/the_origins_of_plasmo.html
Список серий
1. Plasmo and the Moontower
2. Blast Off!
3. Deep Space
4. Plasmo Arrives!
5. Tour of Monjotroldeclipdoc
6. Space Ghosts!
7. Plasmo and the Bookworm
8. Rainy Day
9. Big Dam
10. Nice to be Nice
11. Plasmo and the Golden Robot
12. Bon voyage to Plasmo
13. The return of Kila Wami!
Релиз


Сэмпл: http://multi-up.com/
Качество видео: DVDRip
Формат видео: MKV
Видео: AVC, 492x360, 800 Кбит/сек, 4:3, 25,000 кадров/сек
Аудио 1: Русский ЛО (den904) (AC3, 2 ch, 192 Кбит/с)
Аудио 2: Английский, AC-3, 192 Кбит/сек, 2 канала, 44,1 КГц
Формат субтитров: softsub (SRT)
Работа над релизом:
Релиз kosmoaelita
Русский релиз увидел свет благодаря $Shorox, kosmoaelita
Перевод - karlivanovich
Русская озвучка по заказу kosmoaelita - den904
Спонсор русской озвучки - croMAG

Пример русских субтитров

MediaInfo

Общее
Уникальный идентификатор : 189086589303409534061048335270029009903 (0x8E40C0A00C7511A3A1E554175DC7A3EF)
Полное имя : N:\Plasmo s01e01-13.1997.x264.DVDRip.Rus.kosmoaelita.mkv
Формат : Matroska
Версия формата : Version 4 / Version 2
Размер файла : 527 Мбайт
Продолжительность : 1 ч. 2 м.
Общий поток : 1187 Кбит/сек
Дата кодирования : UTC 2016-12-24 03:27:28
Программа кодирования : mkvmerge v6.6.0 ('The Edge Of The In Between') built on Dec 1 2013 17:55:00
Библиотека кодирования : libebml v1.3.0 + libmatroska v1.4.1
Attachments : Poster Plasmo.jpg
Видео
Идентификатор : 1
Формат : AVC
Формат/Информация : Advanced Video Codec
Профиль формата : High@L4.1
Параметр CABAC формата : Да
Параметр ReFrames формата : 8 кадров
Идентификатор кодека : V_MPEG4/ISO/AVC
Продолжительность : 1 ч. 2 м.
Битрейт : 800 Кбит/сек
Ширина : 492 пикселя
Высота : 360 пикселей
Соотношение сторон : 4:3
Соотношение сторон в оригинале : 4:3
Режим частоты кадров : Постоянный
Частота кадров : 25,000 кадров/сек
Цветовое пространство : YUV
Субдискретизация насыщенности : 4:2:0
Битовая глубина : 8 бит
Тип развёртки : Прогрессивная
Бит/(Пиксели*Кадры) : 0.181
Размер потока : 346 Мбайт (66%)
Библиотека кодирования : x264 core 130 r2273 b3065e6
Настройки программы : cabac=1 / ref=8 / deblock=1:-2:-2 / analyse=0x3:0x133 / me=umh / subme=10 / psy=1 / psy_rd=0.99:0.14 / mixed_ref=1 / me_range=24 / chroma_me=1 / trellis=2 / 8x8dct=1 / cqm=0 / deadzone=21,11 / fast_pskip=1 / chroma_qp_offset=-3 / threads=6 / lookahead_threads=1 / sliced_threads=0 / nr=0 / decimate=1 / interlaced=0 / bluray_compat=0 / constrained_intra=0 / bframes=10 / b_pyramid=2 / b_adapt=2 / b_bias=0 / direct=3 / weightb=1 / open_gop=0 / weightp=2 / keyint=210 / keyint_min=21 / scenecut=40 / intra_refresh=0 / rc_lookahead=80 / rc=2pass / mbtree=1 / bitrate=800 / ratetol=1.0 / qcomp=0.65 / qpmin=0 / qpmax=69 / qpstep=4 / cplxblur=20.0 / qblur=0.5 / ip_ratio=1.25 / aq=1:0.90
Default : Да
Forced : Нет
Statistics Tags Issue : mkvmerge v7.9.0 ('Birds') 64bit 2016-08-31 04:40:13 / mkvmerge v6.6.0 ('The Edge Of The In Between') built on Dec 1 2013 17:55:00 2016-12-24 03:27:28
FromStats_BitRate : 800267
FromStats_Duration : 01:02:01.840000000
FromStats_FrameCount : 93046
FromStats_StreamSize : 372308422
Аудио #1
Идентификатор : 2
Формат : AC-3
Формат/Информация : Audio Coding 3
Расширение режима : CM (complete main)
Параметр Endianness формата : Big
Идентификатор кодека : A_AC3
Продолжительность : 1 ч. 2 м.
Вид битрейта : Постоянный
Битрейт : 192 Кбит/сек
Каналы : 2 канала
Расположение каналов : Front: L R
Частота : 48,0 КГц
Частота кадров : 31,250 кадров/сек (1536 spf)
Метод сжатия : С потерями
Размер потока : 85,2 Мбайт (16%)
Заголовок : Русский ЛО (den904 для kosmoaelita.com) - поддержка croMAG
Язык : Russian
Default : Да
Forced : Нет
Аудио #2
Идентификатор : 3
Формат : AC-3
Формат/Информация : Audio Coding 3
Расширение режима : CM (complete main)
Параметр Endianness формата : Big
Идентификатор кодека : A_AC3
Продолжительность : 1 ч. 2 м.
Вид битрейта : Постоянный
Битрейт : 192 Кбит/сек
Каналы : 2 канала
Расположение каналов : Front: L R
Частота : 44,1 КГц
Частота кадров : 28,711 кадров/сек (1536 spf)
Метод сжатия : С потерями
Размер потока : 85,2 Мбайт (16%)
Заголовок : Английский
Язык : English
Default : Нет
Forced : Нет
Statistics Tags Issue : mkvmerge v7.9.0 ('Birds') 64bit 2016-08-31 04:40:13 / mkvmerge v6.6.0 ('The Edge Of The In Between') built on Dec 1 2013 17:55:00 2016-12-24 03:27:28
FromStats_BitRate : 191999
FromStats_Duration : 01:02:01.892000000
FromStats_FrameCount : 106859
FromStats_StreamSize : 89325396
Текст
Идентификатор : 4
Формат : UTF-8
Идентификатор кодека : S_TEXT/UTF8
Идентификатор кодека/Информация : UTF-8 Plain Text
Заголовок : Русский (karlivanovich-kosmoaelita)
Язык : Russian
Default : Да
Forced : Нет
Statistics Tags Issue : mkvmerge v7.9.0 ('Birds') 64bit 2016-08-31 04:40:13 / mkvmerge v6.6.0 ('The Edge Of The In Between') built on Dec 1 2013 17:55:00 2016-12-24 03:27:28
FromStats_BitRate : 108
FromStats_Duration : 01:01:52.370000000
FromStats_FrameCount : 821
FromStats_StreamSize : 50425

Скриншот c названием фильма

Скриншоты








Последний раз редактировалось: $Shorox (2016-08-31 09:59), всего редактировалось 4 раз(а)
[Профиль] [ЛС]

$Shorox ®

Пол: Мужской

Стаж: 5 лет 11 месяцев

Сообщений: 1888

Создавать темы 31-Авг-2016 08:44 (спустя 4 минуты)

[Цитировать]

croMAG
Смотри.
[Профиль] [ЛС]

$Shorox ®

Пол: Мужской

Стаж: 5 лет 11 месяцев

Сообщений: 1888

Создавать темы 01-Сен-2016 19:19 (спустя 1 день 10 часов)

[Цитировать]

Мульсериал типа этого: Клангеры (мультсериал) / The Clangers (Оливер Постгейт / Oliver Postgate) [1969]
[Профиль] [ЛС]

croMAG

Пол: Мужской

Стаж: 3 года 2 месяца

Сообщений: 1953

Откуда: Прибалтика

Создавать темы 05-Сен-2016 17:13 (спустя 3 дня)

[Цитировать]

$Shorox, мерси чутка позжее скачаю
[Профиль] [ЛС]

kosmoaelita

Пол: Мужской

Стаж: 6 лет 2 месяца

Сообщений: 966

Откуда: Украина

Создавать темы 24-Дек-2016 06:20 (спустя 3 месяца 18 дней)

[Цитировать]

Добавлена русская озвучка от den904
[Профиль] [ЛС]

croMAG

Пол: Мужской

Стаж: 3 года 2 месяца

Сообщений: 1953

Откуда: Прибалтика

Создавать темы 15-Янв-2017 15:38 (спустя 22 дня)

[Цитировать]

Скрины веселые получились
[Профиль] [ЛС]
Показать сообщения:    
Ответить на тему

Текущее время: 18-Ноя 07:07

Часовой пояс: UTC + 3:30



Вы не можете начинать темы
Вы не можете отвечать на сообщения
Вы не можете редактировать свои сообщения
Вы не можете удалять свои сообщения
Вы не можете голосовать в опросах
Вы не можете прикреплять файлы к сообщениям
Вы не можете скачивать файлы