Нация пришельцев Внутренний враг / Alien Nation: The Enemy Within (Кеннет Джонсон /Kenneth Johnson/.) [1996, США Германия, Фантастика., DVD5] (ПМ)

Reply to topic
 
Author Message

CROM@G ®

Gender: Male

Longevity: 5 years

Posts: 3371

Location: Прибалтика

Post 27-Aug-2016 18:55

[Quote]

Нация пришельцев Внутренний враг / Alien Nation: The Enemy Within
Страна: США Германия
Жанр: Фантастика.
Год выпуска: 1996
Продолжительность: 01:30:50.
Перевод: Профессиональный (многоголосый)
Режиссер: Кеннет Джонсон /Kenneth Johnson/.
В ролях: Гэри Грэм /Gary Graham/, Эрик Пирпойнт /Eric Pierpoint/, Микеле Скарабелли /Michele Scarabelli/, Терри Триз /Terri Treas/, Лорен Вудлэнд /Lauren Woodland/, Шон Сикс /Sean Six/, Джефф Маркус /Jeff Marcus/, Рон Фэсслер /Ron Fassler/, Уэйн Пере /Wayne Pere/, Тайни Рон /Tiny Ron/, Дэна Андерсон /Dana Anderson/, Бриджитта Дау /Bridgitta Dau/, Дэрин Химс /Darin Heames/, Керри Кин /Kerrie Keane/, Джо Ландо /Joe Lando/.
Описание: Зыбкое спокойствие пришельцев, давно обосновавшихся на Земле, нарушает загадочное убийство инопланетянки. Расследование приводит офицера Сайкса и его напарника-пришельца Франциско в лабиринт подземных тоннелей, где они сталкиваются с полчищем инопланетных генетических мутантов…
Доп. информация: Релиз croMAG Двд вo всемирной паутине нашел admin Смонтировал anvic
Качество видео: DVD5
Формат видео: DVD Video
Видео: MPEG Video (NTSC ) 720x480 4:3 29.970 к.сек Битрейт переменный
Аудио: 40 Кгц 2ch AC-3 ENGLISH
Аудио 2: 40 Кгц 2ch AC-3 RUSSIAN

MediaInfo

Общее
Полное имя : C:\Users\Roman\Desktop\Alien Nation (M4) - The Enemy Within (1996)\Alien Nation (M4) - The Enemy Within\VIDEO_TS.BUP
Формат : DVD Video
Профиль формата : Menu
Размер файла : 20,0 Кбайт
Режим общего битрейта : Переменный
Видео
Идентификатор : 224 (0xE0)
Формат : MPEG Video
Версия формата : Version 2
Вид битрейта : Переменный
Ширина : 720 пикселей
Высота : 480 пикселей
Соотношение сторон : 4:3
Частота кадров : 29,970 (29970/1000) кадров/сек
Стандарт вещания : NTSC
Метод сжатия : С потерями
Текст
Формат : RLE
Формат/Информация : Run-length encoding
Битовая глубина : 2 бит
Общее
Полное имя : C:\Users\Roman\Desktop\Alien Nation (M4) - The Enemy Within (1996)\Alien Nation (M4) - The Enemy Within\VIDEO_TS.IFO
Формат : DVD Video
Профиль формата : Menu
Размер файла : 20,0 Кбайт
Режим общего битрейта : Переменный
Видео
Идентификатор : 224 (0xE0)
Формат : MPEG Video
Версия формата : Version 2
Вид битрейта : Переменный
Ширина : 720 пикселей
Высота : 480 пикселей
Соотношение сторон : 4:3
Частота кадров : 29,970 (29970/1000) кадров/сек
Стандарт вещания : NTSC
Метод сжатия : С потерями
Текст
Формат : RLE
Формат/Информация : Run-length encoding
Битовая глубина : 2 бит
Общее
Полное имя : C:\Users\Roman\Desktop\Alien Nation (M4) - The Enemy Within (1996)\Alien Nation (M4) - The Enemy Within\VIDEO_TS.VOB
Формат : MPEG-PS
Размер файла : 326 Кбайт
Продолжительность : 33 мс.
Общий поток : 80,9 Мбит/сек
Видео
Идентификатор : 224 (0xE0)
Формат : MPEG Video
Версия формата : Version 2
Профиль формата : Main@Main
Параметр BVOP формата : Нет
Параметр матрицы формата : Выборочная
Продолжительность : 33 мс.
Максимальный битрейт : 8000 Кбит/сек
Ширина : 720 пикселей
Высота : 480 пикселей
Соотношение сторон : 4:3
Частота кадров : 29,970 (30000/1001) кадров/сек
Стандарт вещания : NTSC
Цветовое пространство : YUV
Субдискретизация насыщенности : 4:2:0
Битовая глубина : 8 бит
Тип развёртки : Прогрессивная
Порядок развёртки : Верхнее поле первое
Метод сжатия : С потерями
Основные цвета : BT.601 NTSC
Характеристики трансфера : BT.601
Коэффициенты матрицы : BT.601
Меню
Общее
Полное имя : C:\Users\Roman\Desktop\Alien Nation (M4) - The Enemy Within (1996)\Alien Nation (M4) - The Enemy Within\VTS_01_0.BUP
Формат : DVD Video
Профиль формата : Program
Размер файла : 72,0 Кбайт
Продолжительность : 1 ч. 30 м.
Режим общего битрейта : Переменный
Общий поток : 108 бит/сек
Видео
Идентификатор : 224 (0xE0)
Формат : MPEG Video
Версия формата : Version 2
Продолжительность : 1 ч. 30 м.
Вид битрейта : Переменный
Ширина : 720 пикселей
Высота : 480 пикселей
Соотношение сторон : 4:3
Частота кадров : 29,970 (29970/1000) кадров/сек
Стандарт вещания : NTSC
Метод сжатия : С потерями
Аудио #1
Идентификатор : 128 (0x80)
Формат : AC-3
Формат/Информация : Audio Coding 3
Продолжительность : 1 ч. 30 м.
Каналы : 2 канала
Частота : 48,0 КГц
Метод сжатия : С потерями
Язык : Russian
Аудио #2
Идентификатор : 129 (0x81)
Формат : AC-3
Формат/Информация : Audio Coding 3
Продолжительность : 1 ч. 30 м.
Каналы : 2 канала
Частота : 48,0 КГц
Метод сжатия : С потерями
Язык : English
Аудио #3
Идентификатор : 130 (0x82)
Формат : AC-3
Формат/Информация : Audio Coding 3
Продолжительность : 1 ч. 30 м.
Каналы : 2 канала
Частота : 48,0 КГц
Метод сжатия : С потерями
Язык : English
Язык, дополнительно : Director's comments
Текст #1
Идентификатор : 32 (0x20)
Формат : RLE
Формат/Информация : Run-length encoding
Битовая глубина : 2 бит
Язык : English
Текст #2
Идентификатор : 32 (0x20)
Формат : RLE
Формат/Информация : Run-length encoding
Битовая глубина : 2 бит
Язык : Spanish
Язык, дополнительно : Normal
Текст #3
Идентификатор : 32 (0x20)
Формат : RLE
Формат/Информация : Run-length encoding
Битовая глубина : 2 бит
Язык : Spanish
Язык, дополнительно : Normal
Меню #1
Продолжительность : 1 ч. 30 м.
00:00:00.000 : Chapter 1
00:05:24.766 : Chapter 2
00:08:57.266 : Chapter 3
00:12:36.799 : Chapter 4
00:18:14.599 : Chapter 5
00:20:47.599 : Chapter 6
00:22:34.932 : Chapter 7
00:28:28.065 : Chapter 8
00:32:34.731 : Chapter 9
00:37:20.864 : Chapter 10
00:41:08.930 : Chapter 11
00:46:28.263 : Chapter 12
00:52:07.596 : Chapter 13
00:55:27.196 : Chapter 14
01:02:53.896 : Chapter 15
01:09:26.196 : Chapter 16
01:13:45.896 : Chapter 17
01:16:11.862 : Chapter 18
01:24:15.962 : Chapter 19
01:28:08.462 : Chapter 20
01:30:45.462 : Chapter 21
List (Audio) : 0 / 1 / 2
List (Subtitles 4/3) : 0 / 1 / 2
List (Subtitles Wide) : 0 / 0 / 0
List (Subtitles Letterbox) : 0 / 0 / 0
List (Subtitles Pan&Scan) : 0 / 0 / 0
Меню #2
Продолжительность : 400 мс.
00:00:00.000 : Chapter 1
List (Audio) : 0 / 1 / 2
List (Subtitles 4/3) : 0 / 1 / 2
List (Subtitles Wide) : 0 / 0 / 0
List (Subtitles Letterbox) : 0 / 0 / 0
List (Subtitles Pan&Scan) : 0 / 0 / 0
Меню #3
Общее
Полное имя : C:\Users\Roman\Desktop\Alien Nation (M4) - The Enemy Within (1996)\Alien Nation (M4) - The Enemy Within\VTS_01_0.IFO
Формат : DVD Video
Профиль формата : Program
Размер файла : 72,0 Кбайт
Продолжительность : 1 ч. 30 м.
Режим общего битрейта : Переменный
Общий поток : 108 бит/сек
Видео
Идентификатор : 224 (0xE0)
Формат : MPEG Video
Версия формата : Version 2
Продолжительность : 1 ч. 30 м.
Вид битрейта : Переменный
Ширина : 720 пикселей
Высота : 480 пикселей
Соотношение сторон : 4:3
Частота кадров : 29,970 (29970/1000) кадров/сек
Стандарт вещания : NTSC
Метод сжатия : С потерями
Аудио #1
Идентификатор : 128 (0x80)
Формат : AC-3
Формат/Информация : Audio Coding 3
Продолжительность : 1 ч. 30 м.
Каналы : 2 канала
Частота : 48,0 КГц
Метод сжатия : С потерями
Язык : Russian
Аудио #2
Идентификатор : 129 (0x81)
Формат : AC-3
Формат/Информация : Audio Coding 3
Продолжительность : 1 ч. 30 м.
Каналы : 2 канала
Частота : 48,0 КГц
Метод сжатия : С потерями
Язык : English
Аудио #3
Идентификатор : 130 (0x82)
Формат : AC-3
Формат/Информация : Audio Coding 3
Продолжительность : 1 ч. 30 м.
Каналы : 2 канала
Частота : 48,0 КГц
Метод сжатия : С потерями
Язык : English
Язык, дополнительно : Director's comments
Текст #1
Идентификатор : 32 (0x20)
Формат : RLE
Формат/Информация : Run-length encoding
Битовая глубина : 2 бит
Язык : English
Текст #2
Идентификатор : 32 (0x20)
Формат : RLE
Формат/Информация : Run-length encoding
Битовая глубина : 2 бит
Язык : Spanish
Язык, дополнительно : Normal
Текст #3
Идентификатор : 32 (0x20)
Формат : RLE
Формат/Информация : Run-length encoding
Битовая глубина : 2 бит
Язык : Spanish
Язык, дополнительно : Normal
Меню #1
Продолжительность : 1 ч. 30 м.
00:00:00.000 : Chapter 1
00:05:24.766 : Chapter 2
00:08:57.266 : Chapter 3
00:12:36.799 : Chapter 4
00:18:14.599 : Chapter 5
00:20:47.599 : Chapter 6
00:22:34.932 : Chapter 7
00:28:28.065 : Chapter 8
00:32:34.731 : Chapter 9
00:37:20.864 : Chapter 10
00:41:08.930 : Chapter 11
00:46:28.263 : Chapter 12
00:52:07.596 : Chapter 13
00:55:27.196 : Chapter 14
01:02:53.896 : Chapter 15
01:09:26.196 : Chapter 16
01:13:45.896 : Chapter 17
01:16:11.862 : Chapter 18
01:24:15.962 : Chapter 19
01:28:08.462 : Chapter 20
01:30:45.462 : Chapter 21
List (Audio) : 0 / 1 / 2
List (Subtitles 4/3) : 0 / 1 / 2
List (Subtitles Wide) : 0 / 0 / 0
List (Subtitles Letterbox) : 0 / 0 / 0
List (Subtitles Pan&Scan) : 0 / 0 / 0
Меню #2
Продолжительность : 400 мс.
00:00:00.000 : Chapter 1
List (Audio) : 0 / 1 / 2
List (Subtitles 4/3) : 0 / 1 / 2
List (Subtitles Wide) : 0 / 0 / 0
List (Subtitles Letterbox) : 0 / 0 / 0
List (Subtitles Pan&Scan) : 0 / 0 / 0
Меню #3
Общее
Полное имя : C:\Users\Roman\Desktop\Alien Nation (M4) - The Enemy Within (1996)\Alien Nation (M4) - The Enemy Within\VTS_01_0.VOB
Формат : MPEG-PS
Размер файла : 7,00 Мбайт
Продолжительность : 1 м. 0 с.
Общий поток : 978 Кбит/сек
Видео
Идентификатор : 224 (0xE0)
Формат : MPEG Video
Версия формата : Version 2
Профиль формата : Main@Main
Параметр BVOP формата : Нет
Параметр матрицы формата : Выборочная
Параметр GOP формата : N=1
Продолжительность : 33 мс.
Битрейт : 766 Кбит/сек
Максимальный битрейт : 8000 Кбит/сек
Ширина : 720 пикселей
Высота : 480 пикселей
Соотношение сторон : 4:3
Частота кадров : 29,970 (30000/1001) кадров/сек
Стандарт вещания : NTSC
Цветовое пространство : YUV
Субдискретизация насыщенности : 4:2:0
Битовая глубина : 8 бит
Тип развёртки : Прогрессивная
Порядок развёртки : Верхнее поле первое
Метод сжатия : С потерями
Бит/(Пиксели*Кадры) : 0.074
Размер потока : 3,12 Кбайт (0%)
Основные цвета : BT.601 NTSC
Характеристики трансфера : BT.601
Коэффициенты матрицы : BT.601
Аудио
Идентификатор : 189 (0xBD)-128 (0x80)
Формат : AC-3
Формат/Информация : Audio Coding 3
Профиль формата : Dolby Digital
Расширение режима : CM (complete main)
Параметр Endianness формата : Big
Режим смешивания : DVD-Video
Продолжительность : 1 м. 0 с.
Вид битрейта : Постоянный
Битрейт : 192 Кбит/сек
Каналы : 2 канала
Расположение каналов : Front: L R
Частота : 48,0 КГц
Частота кадров : 31,250 кадров/сек (1536 spf)
Метод сжатия : С потерями
Размер потока : 1,37 Мбайт (20%)
Текст
Идентификатор : 189 (0xBD)-32 (0x20)
Формат : RLE
Формат/Информация : Run-length encoding
Режим смешивания : DVD-Video
Меню
Общее
Полное имя : C:\Users\Roman\Desktop\Alien Nation (M4) - The Enemy Within (1996)\Alien Nation (M4) - The Enemy Within\VTS_01_1.VOB
Формат : MPEG-PS
Размер файла : 1024 Мбайт
Продолжительность : 1 ч. 26 м.
Режим общего битрейта : Переменный
Общий поток : 1658 Кбит/сек
Библиотека кодирования : encoded by TMPGEnc (ver. 2.524.63.181)
Видео
Идентификатор : 224 (0xE0)
Формат : MPEG Video
Версия формата : Version 2
Профиль формата : Main@Main
Параметр BVOP формата : Да
Параметр матрицы формата : Выборочная
Параметр GOP формата : M=3, N=15
Продолжительность : 1 ч. 26 м.
Вид битрейта : Переменный
Битрейт : 1049 Кбит/сек
Ширина : 720 пикселей
Высота : 480 пикселей
Соотношение сторон : 4:3
Частота кадров : 29,970 (30000/1001) кадров/сек
Стандарт вещания : Component
Цветовое пространство : YUV
Субдискретизация насыщенности : 4:2:0
Битовая глубина : 8 бит
Метод сжатия : С потерями
Бит/(Пиксели*Кадры) : 0.101
Временной код первого кадра : 00:00:00:00
Оригинал временного кода : Group of pictures header
Размер потока : 648 Мбайт (63%)
Библиотека кодирования : TMPGEnc 2.524.63.181
Основные цвета : BT.601 NTSC
Характеристики трансфера : BT.601
Коэффициенты матрицы : BT.601
Аудио #1
Идентификатор : 189 (0xBD)-128 (0x80)
Формат : AC-3
Формат/Информация : Audio Coding 3
Расширение режима : CM (complete main)
Параметр Endianness формата : Big
Режим смешивания : DVD-Video
Продолжительность : 26 м.
Вид битрейта : Постоянный
Битрейт : 192 Кбит/сек
Каналы : 2 канала
Расположение каналов : Front: L R
Частота : 48,0 КГц
Частота кадров : 31,250 кадров/сек (1536 spf)
Метод сжатия : С потерями
Задержка видео : -1 ч. 30 м.
Размер потока : 36,1 Мбайт (4%)
Аудио #2
Идентификатор : 189 (0xBD)-129 (0x81)
Формат : AC-3
Формат/Информация : Audio Coding 3
Расширение режима : CM (complete main)
Параметр Endianness формата : Big
Режим смешивания : DVD-Video
Продолжительность : 26 м.
Вид битрейта : Постоянный
Битрейт : 192 Кбит/сек
Каналы : 2 канала
Расположение каналов : Front: L R
Частота : 48,0 КГц
Частота кадров : 31,250 кадров/сек (1536 spf)
Метод сжатия : С потерями
Задержка видео : -1 ч. 30 м.
Размер потока : 36,1 Мбайт (4%)
Аудио #3
Идентификатор : 189 (0xBD)-130 (0x82)
Формат : AC-3
Формат/Информация : Audio Coding 3
Расширение режима : CM (complete main)
Параметр Endianness формата : Big
Режим смешивания : DVD-Video
Продолжительность : 26 м.
Вид битрейта : Постоянный
Битрейт : 192 Кбит/сек
Каналы : 2 канала
Расположение каналов : Front: L R
Частота : 48,0 КГц
Частота кадров : 31,250 кадров/сек (1536 spf)
Метод сжатия : С потерями
Задержка видео : -1 ч. 30 м.
Размер потока : 36,1 Мбайт (4%)
Текст
Идентификатор : 224 (0xE0)-CC3
Формат : EIA-608
Режим смешивания, доп. информация : Muxed in Video #1
Вид битрейта : Постоянный
Размер потока : 0,00 байт (0%)
Меню
Общее
Полное имя : C:\Users\Roman\Desktop\Alien Nation (M4) - The Enemy Within (1996)\Alien Nation (M4) - The Enemy Within\VTS_01_2.VOB
Формат : MPEG-PS
Размер файла : 1024 Мбайт
Продолжительность : 26 м.
Режим общего битрейта : Переменный
Общий поток : 5422 Кбит/сек
Видео
Идентификатор : 224 (0xE0)
Формат : MPEG Video
Версия формата : Version 2
Профиль формата : Main@Main
Параметр BVOP формата : Да
Параметр матрицы формата : Выборочная
Параметр GOP формата : Variable
Структура изображения : Frame
Продолжительность : 26 м.
Вид битрейта : Переменный
Битрейт : 4738 Кбит/сек
Максимальный битрейт : 9802 Кбит/сек
Ширина : 720 пикселей
Высота : 480 пикселей
Соотношение сторон : 4:3
Частота кадров : 29,970 (30000/1001) кадров/сек
Стандарт вещания : Component
Цветовое пространство : YUV
Субдискретизация насыщенности : 4:2:0
Битовая глубина : 8 бит
Тип развёртки : Чересстрочная
Порядок развёртки : Верхнее поле первое
Метод сжатия : С потерями
Бит/(Пиксели*Кадры) : 0.457
Временной код первого кадра : 01:26:15;10
Оригинал временного кода : Group of pictures header
Размер потока : 895 Мбайт (87%)
Основные цвета : BT.601 NTSC
Характеристики трансфера : BT.601
Коэффициенты матрицы : BT.601
Аудио #1
Идентификатор : 189 (0xBD)-128 (0x80)
Формат : AC-3
Формат/Информация : Audio Coding 3
Расширение режима : CM (complete main)
Параметр Endianness формата : Big
Режим смешивания : DVD-Video
Продолжительность : 26 м.
Вид битрейта : Постоянный
Битрейт : 192 Кбит/сек
Каналы : 2 канала
Расположение каналов : Front: L R
Частота : 48,0 КГц
Частота кадров : 31,250 кадров/сек (1536 spf)
Метод сжатия : С потерями
Задержка видео : -182 мс.
Размер потока : 36,3 Мбайт (4%)
Аудио #2
Идентификатор : 189 (0xBD)-129 (0x81)
Формат : AC-3
Формат/Информация : Audio Coding 3
Расширение режима : CM (complete main)
Параметр Endianness формата : Big
Режим смешивания : DVD-Video
Продолжительность : 26 м.
Вид битрейта : Постоянный
Битрейт : 192 Кбит/сек
Каналы : 2 канала
Расположение каналов : Front: L R
Частота : 48,0 КГц
Частота кадров : 31,250 кадров/сек (1536 spf)
Метод сжатия : С потерями
Задержка видео : -182 мс.
Размер потока : 36,3 Мбайт (4%)
Аудио #3
Идентификатор : 189 (0xBD)-130 (0x82)
Формат : AC-3
Формат/Информация : Audio Coding 3
Расширение режима : CM (complete main)
Параметр Endianness формата : Big
Режим смешивания : DVD-Video
Продолжительность : 26 м.
Вид битрейта : Постоянный
Битрейт : 192 Кбит/сек
Каналы : 2 канала
Расположение каналов : Front: L R
Частота : 48,0 КГц
Частота кадров : 31,250 кадров/сек (1536 spf)
Метод сжатия : С потерями
Задержка видео : -182 мс.
Размер потока : 36,3 Мбайт (4%)
Текст
Идентификатор : 224 (0xE0)-CC3
Формат : EIA-608
Режим смешивания, доп. информация : Muxed in Video #1
Вид битрейта : Постоянный
Размер потока : 0,00 байт (0%)
Меню
Общее
Полное имя : C:\Users\Roman\Desktop\Alien Nation (M4) - The Enemy Within (1996)\Alien Nation (M4) - The Enemy Within\VTS_01_3.VOB
Формат : MPEG-PS
Размер файла : 1024 Мбайт
Продолжительность : 26 м.
Режим общего битрейта : Переменный
Общий поток : 5402 Кбит/сек
Видео
Идентификатор : 224 (0xE0)
Формат : MPEG Video
Версия формата : Version 2
Профиль формата : Main@Main
Параметр BVOP формата : Да
Параметр матрицы формата : Выборочная
Параметр GOP формата : Variable
Структура изображения : Frame
Продолжительность : 26 м.
Вид битрейта : Переменный
Битрейт : 4719 Кбит/сек
Максимальный битрейт : 9802 Кбит/сек
Ширина : 720 пикселей
Высота : 480 пикселей
Соотношение сторон : 4:3
Частота кадров : 29,970 (30000/1001) кадров/сек
Стандарт вещания : Component
Цветовое пространство : YUV
Субдискретизация насыщенности : 4:2:0
Битовая глубина : 8 бит
Тип развёртки : Чересстрочная
Порядок развёртки : Верхнее поле первое
Метод сжатия : С потерями
Бит/(Пиксели*Кадры) : 0.456
Временной код первого кадра : 01:52:39;18
Оригинал временного кода : Group of pictures header
Размер потока : 894 Мбайт (87%)
Основные цвета : BT.601 NTSC
Характеристики трансфера : BT.601
Коэффициенты матрицы : BT.601
Аудио #1
Идентификатор : 189 (0xBD)-128 (0x80)
Формат : AC-3
Формат/Информация : Audio Coding 3
Расширение режима : CM (complete main)
Параметр Endianness формата : Big
Режим смешивания : DVD-Video
Продолжительность : 26 м.
Вид битрейта : Постоянный
Битрейт : 192 Кбит/сек
Каналы : 2 канала
Расположение каналов : Front: L R
Частота : 48,0 КГц
Частота кадров : 31,250 кадров/сек (1536 spf)
Метод сжатия : С потерями
Задержка видео : -82 мс.
Размер потока : 36,4 Мбайт (4%)
Аудио #2
Идентификатор : 189 (0xBD)-129 (0x81)
Формат : AC-3
Формат/Информация : Audio Coding 3
Расширение режима : CM (complete main)
Параметр Endianness формата : Big
Режим смешивания : DVD-Video
Продолжительность : 26 м.
Вид битрейта : Постоянный
Битрейт : 192 Кбит/сек
Каналы : 2 канала
Расположение каналов : Front: L R
Частота : 48,0 КГц
Частота кадров : 31,250 кадров/сек (1536 spf)
Метод сжатия : С потерями
Задержка видео : -82 мс.
Размер потока : 36,4 Мбайт (4%)
Аудио #3
Идентификатор : 189 (0xBD)-130 (0x82)
Формат : AC-3
Формат/Информация : Audio Coding 3
Расширение режима : CM (complete main)
Параметр Endianness формата : Big
Режим смешивания : DVD-Video
Продолжительность : 26 м.
Вид битрейта : Постоянный
Битрейт : 192 Кбит/сек
Каналы : 2 канала
Расположение каналов : Front: L R
Частота : 48,0 КГц
Частота кадров : 31,250 кадров/сек (1536 spf)
Метод сжатия : С потерями
Задержка видео : -82 мс.
Размер потока : 36,4 Мбайт (4%)
Текст
Идентификатор : 224 (0xE0)-CC3
Формат : EIA-608
Режим смешивания, доп. информация : Muxed in Video #1
Вид битрейта : Постоянный
Размер потока : 0,00 байт (0%)
Меню
Общее
Полное имя : C:\Users\Roman\Desktop\Alien Nation (M4) - The Enemy Within (1996)\Alien Nation (M4) - The Enemy Within\VTS_01_4.VOB
Формат : MPEG-PS
Размер файла : 464 Мбайт
Продолжительность : 11 м.
Режим общего битрейта : Переменный
Общий поток : 5554 Кбит/сек
Видео
Идентификатор : 224 (0xE0)
Формат : MPEG Video
Версия формата : Version 2
Профиль формата : Main@Main
Параметр BVOP формата : Да
Параметр матрицы формата : Выборочная
Параметр GOP формата : Variable
Структура изображения : Frame
Продолжительность : 11 м.
Вид битрейта : Переменный
Битрейт : 4868 Кбит/сек
Максимальный битрейт : 9802 Кбит/сек
Ширина : 720 пикселей
Высота : 480 пикселей
Соотношение сторон : 4:3
Частота кадров : 29,970 (30000/1001) кадров/сек
Стандарт вещания : Component
Цветовое пространство : YUV
Субдискретизация насыщенности : 4:2:0
Битовая глубина : 8 бит
Тип развёртки : Чересстрочная
Порядок развёртки : Верхнее поле первое
Метод сжатия : С потерями
Бит/(Пиксели*Кадры) : 0.470
Временной код первого кадра : 02:19:09;27
Оригинал временного кода : Group of pictures header
Размер потока : 406 Мбайт (88%)
Основные цвета : BT.601 NTSC
Характеристики трансфера : BT.601
Коэффициенты матрицы : BT.601
Аудио #1
Идентификатор : 189 (0xBD)-128 (0x80)
Формат : AC-3
Формат/Информация : Audio Coding 3
Расширение режима : CM (complete main)
Параметр Endianness формата : Big
Режим смешивания : DVD-Video
Продолжительность : 11 м.
Вид битрейта : Постоянный
Битрейт : 192 Кбит/сек
Каналы : 2 канала
Расположение каналов : Front: L R
Частота : 48,0 КГц
Частота кадров : 31,250 кадров/сек (1536 spf)
Метод сжатия : С потерями
Задержка видео : -193 мс.
Размер потока : 16,0 Мбайт (3%)
Аудио #2
Идентификатор : 189 (0xBD)-129 (0x81)
Формат : AC-3
Формат/Информация : Audio Coding 3
Расширение режима : CM (complete main)
Параметр Endianness формата : Big
Режим смешивания : DVD-Video
Продолжительность : 11 м.
Вид битрейта : Постоянный
Битрейт : 192 Кбит/сек
Каналы : 2 канала
Расположение каналов : Front: L R
Частота : 48,0 КГц
Частота кадров : 31,250 кадров/сек (1536 spf)
Метод сжатия : С потерями
Задержка видео : -193 мс.
Размер потока : 16,0 Мбайт (3%)
Аудио #3
Идентификатор : 189 (0xBD)-130 (0x82)
Формат : AC-3
Формат/Информация : Audio Coding 3
Расширение режима : CM (complete main)
Параметр Endianness формата : Big
Режим смешивания : DVD-Video
Продолжительность : 11 м.
Вид битрейта : Постоянный
Битрейт : 192 Кбит/сек
Каналы : 2 канала
Расположение каналов : Front: L R
Частота : 48,0 КГц
Частота кадров : 31,250 кадров/сек (1536 spf)
Метод сжатия : С потерями
Задержка видео : -193 мс.
Размер потока : 16,0 Мбайт (3%)
Текст
Идентификатор : 224 (0xE0)-CC3
Формат : EIA-608
Режим смешивания, доп. информация : Muxed in Video #1
Вид битрейта : Постоянный
Размер потока : 0,00 байт (0%)
Меню
Общее
Полное имя : C:\Users\Roman\Desktop\Alien Nation (M4) - The Enemy Within (1996)\Alien Nation (M4) - The Enemy Within\VTS_02_0.BUP
Формат : DVD Video
Профиль формата : Program
Размер файла : 14,0 Кбайт
Продолжительность : 7 с. 400 мс.
Режим общего битрейта : Переменный
Общий поток : 15,5 Кбит/сек
Видео
Идентификатор : 224 (0xE0)
Формат : MPEG Video
Версия формата : Version 2
Продолжительность : 7 с. 407 мс.
Вид битрейта : Переменный
Битрейт : 7984 бит/сек
Ширина : 720 пикселей
Высота : 480 пикселей
Соотношение сторон : 4:3
Частота кадров : 29,970 (29970/1000) кадров/сек
Стандарт вещания : NTSC
Метод сжатия : С потерями
Бит/(Пиксели*Кадры) : 0.001
Размер потока : 7,22 Кбайт (52%)
Меню #1
Продолжительность : 7 с. 400 мс.
00:00:00.000 : Chapter 1
00:00:07.000 : Chapter 2
Меню #2
Продолжительность : 800 мс.
00:00:00.000 : Chapter 1
00:00:00.400 : Chapter 2
Меню #3
Продолжительность : 7 с. 400 мс.
00:00:00.000 : Chapter 1
00:00:07.000 : Chapter 2
Общее
Полное имя : C:\Users\Roman\Desktop\Alien Nation (M4) - The Enemy Within (1996)\Alien Nation (M4) - The Enemy Within\VTS_02_0.IFO
Формат : DVD Video
Профиль формата : Program
Размер файла : 14,0 Кбайт
Продолжительность : 7 с. 400 мс.
Режим общего битрейта : Переменный
Общий поток : 15,5 Кбит/сек
Видео
Идентификатор : 224 (0xE0)
Формат : MPEG Video
Версия формата : Version 2
Продолжительность : 7 с. 407 мс.
Вид битрейта : Переменный
Битрейт : 7984 бит/сек
Ширина : 720 пикселей
Высота : 480 пикселей
Соотношение сторон : 4:3
Частота кадров : 29,970 (29970/1000) кадров/сек
Стандарт вещания : NTSC
Метод сжатия : С потерями
Бит/(Пиксели*Кадры) : 0.001
Размер потока : 7,22 Кбайт (52%)
Меню #1
Продолжительность : 7 с. 400 мс.
00:00:00.000 : Chapter 1
00:00:07.000 : Chapter 2
Меню #2
Продолжительность : 800 мс.
00:00:00.000 : Chapter 1
00:00:00.400 : Chapter 2
Меню #3
Продолжительность : 7 с. 400 мс.
00:00:00.000 : Chapter 1
00:00:07.000 : Chapter 2
Общее
Полное имя : C:\Users\Roman\Desktop\Alien Nation (M4) - The Enemy Within (1996)\Alien Nation (M4) - The Enemy Within\VTS_02_1.VOB
Формат : MPEG-PS
Размер файла : 284 Кбайт
Продолжительность : 400 мс.
Общий поток : 5816 Кбит/сек
Библиотека кодирования : encoded by TMPGEnc (ver. 2.524.63.181)
Видео
Идентификатор : 224 (0xE0)
Формат : MPEG Video
Версия формата : Version 2
Профиль формата : Main@Main
Параметр BVOP формата : Нет
Параметр матрицы формата : Выборочная
Продолжительность : 400 мс.
Ширина : 720 пикселей
Высота : 480 пикселей
Соотношение сторон : 4:3
Частота кадров : 29,970 (30000/1001) кадров/сек
Стандарт вещания : NTSC
Цветовое пространство : YUV
Субдискретизация насыщенности : 4:2:0
Битовая глубина : 8 бит
Тип развёртки : Прогрессивная
Метод сжатия : С потерями
Библиотека кодирования : TMPGEnc 2.524.63.181
Основные цвета : BT.601 NTSC
Характеристики трансфера : BT.601
Коэффициенты матрицы : BT.601
Меню
Общее
Полное имя : C:\Users\Roman\Desktop\Alien Nation (M4) - The Enemy Within (1996)\Alien Nation (M4) - The Enemy Within\VTS_03_0.BUP
Формат : DVD Video
Профиль формата : Program
Размер файла : 14,0 Кбайт
Продолжительность : 15 с.
Режим общего битрейта : Переменный
Общий поток : 7612 бит/сек
Видео
Идентификатор : 224 (0xE0)
Формат : MPEG Video
Версия формата : Version 2
Продолжительность : 15 с.
Вид битрейта : Переменный
Ширина : 720 пикселей
Высота : 480 пикселей
Соотношение сторон : 4:3
Частота кадров : 29,970 (29970/1000) кадров/сек
Стандарт вещания : NTSC
Метод сжатия : С потерями
Аудио
Идентификатор : 128 (0x80)
Формат : AC-3
Формат/Информация : Audio Coding 3
Продолжительность : 15 с.
Каналы : 6 каналов
Частота : 48,0 КГц
Метод сжатия : С потерями
Язык : English
Меню #1
Продолжительность : 15 с.
00:00:00.000 : Chapter 1
00:00:14.666 : Chapter 2
List (Audio) : 0
Меню #2
Продолжительность : 7 с. 900 мс.
00:00:00.000 : Chapter 1
00:00:07.500 : Chapter 2
Общее
Полное имя : C:\Users\Roman\Desktop\Alien Nation (M4) - The Enemy Within (1996)\Alien Nation (M4) - The Enemy Within\VTS_03_0.IFO
Формат : DVD Video
Профиль формата : Program
Размер файла : 14,0 Кбайт
Продолжительность : 15 с.
Режим общего битрейта : Переменный
Общий поток : 7612 бит/сек
Видео
Идентификатор : 224 (0xE0)
Формат : MPEG Video
Версия формата : Version 2
Продолжительность : 15 с.
Вид битрейта : Переменный
Ширина : 720 пикселей
Высота : 480 пикселей
Соотношение сторон : 4:3
Частота кадров : 29,970 (29970/1000) кадров/сек
Стандарт вещания : NTSC
Метод сжатия : С потерями
Аудио
Идентификатор : 128 (0x80)
Формат : AC-3
Формат/Информация : Audio Coding 3
Продолжительность : 15 с.
Каналы : 6 каналов
Частота : 48,0 КГц
Метод сжатия : С потерями
Язык : English
Меню #1
Продолжительность : 15 с.
00:00:00.000 : Chapter 1
00:00:14.666 : Chapter 2
List (Audio) : 0
Меню #2
Продолжительность : 7 с. 900 мс.
00:00:00.000 : Chapter 1
00:00:07.500 : Chapter 2
Общее
Полное имя : C:\Users\Roman\Desktop\Alien Nation (M4) - The Enemy Within (1996)\Alien Nation (M4) - The Enemy Within\VTS_03_1.VOB
Формат : MPEG-PS
Размер файла : 16,9 Мбайт
Продолжительность : 7 с. 508 мс.
Режим общего битрейта : Переменный
Общий поток : 18,8 Мбит/сек
Библиотека кодирования : encoded by TMPGEnc (ver. 2.524.63.181)
Видео
Идентификатор : 224 (0xE0)
Формат : MPEG Video
Версия формата : Version 2
Профиль формата : Main@Main
Параметр BVOP формата : Да
Параметр матрицы формата : Выборочная
Параметр GOP формата : Variable
Продолжительность : 7 с. 508 мс.
Вид битрейта : Переменный
Битрейт : 18,0 Мбит/сек
Ширина : 720 пикселей
Высота : 480 пикселей
Соотношение сторон : 4:3
Частота кадров : 23,976 (24000/1001) кадра/сек
Стандарт вещания : Component
Цветовое пространство : YUV
Субдискретизация насыщенности : 4:2:0
Битовая глубина : 8 бит
Тип развёртки : Прогрессивная
Порядок развёртки : 2:3 Pulldown
Метод сжатия : С потерями
Бит/(Пиксели*Кадры) : 2.175
Временной код первого кадра : 00:00:00:00
Оригинал временного кода : Group of pictures header
Размер потока : 16,1 Мбайт (96%)
Библиотека кодирования : TMPGEnc 2.524.63.181
Основные цвета : BT.601 NTSC
Характеристики трансфера : BT.601
Коэффициенты матрицы : BT.601
Аудио
Идентификатор : 189 (0xBD)-128 (0x80)
Формат : AC-3
Формат/Информация : Audio Coding 3
Расширение режима : CM (complete main)
Параметр Endianness формата : Big
Режим смешивания : DVD-Video
Продолжительность : 7 с. 508 мс.
Вид битрейта : Постоянный
Битрейт : 448 Кбит/сек
Каналы : 6 каналов
Расположение каналов : Front: L C R, Side: L R, LFE
Частота : 48,0 КГц
Частота кадров : 31,250 кадров/сек (1536 spf)
Метод сжатия : С потерями
Размер потока : 411 Кбайт (2%)
Меню
Общее
Полное имя : C:\Users\Roman\Desktop\Alien Nation (M4) - The Enemy Within (1996)\Alien Nation (M4) - The Enemy Within\VTS_04_0.BUP
Формат : DVD Video
Профиль формата : Program
Размер файла : 28,0 Кбайт
Продолжительность : 23 м.
Режим общего битрейта : Переменный
Общий поток : 165 бит/сек
Видео
Идентификатор : 224 (0xE0)
Формат : MPEG Video
Версия формата : Version 2
Продолжительность : 23 м.
Вид битрейта : Переменный
Ширина : 720 пикселей
Высота : 480 пикселей
Соотношение сторон : 4:3
Частота кадров : 29,970 (29970/1000) кадров/сек
Стандарт вещания : NTSC
Метод сжатия : С потерями
Аудио
Идентификатор : 128 (0x80)
Формат : AC-3
Формат/Информация : Audio Coding 3
Продолжительность : 23 м.
Каналы : 2 канала
Частота : 48,0 КГц
Метод сжатия : С потерями
Язык : English
Меню
Продолжительность : 23 м.
00:00:00.000 : Chapter 1
00:23:09.666 : Chapter 2
List (Audio) : 0
Общее
Полное имя : C:\Users\Roman\Desktop\Alien Nation (M4) - The Enemy Within (1996)\Alien Nation (M4) - The Enemy Within\VTS_04_0.IFO
Формат : DVD Video
Профиль формата : Program
Размер файла : 28,0 Кбайт
Продолжительность : 23 м.
Режим общего битрейта : Переменный
Общий поток : 165 бит/сек
Видео
Идентификатор : 224 (0xE0)
Формат : MPEG Video
Версия формата : Version 2
Продолжительность : 23 м.
Вид битрейта : Переменный
Ширина : 720 пикселей
Высота : 480 пикселей
Соотношение сторон : 4:3
Частота кадров : 29,970 (29970/1000) кадров/сек
Стандарт вещания : NTSC
Метод сжатия : С потерями
Аудио
Идентификатор : 128 (0x80)
Формат : AC-3
Формат/Информация : Audio Coding 3
Продолжительность : 23 м.
Каналы : 2 канала
Частота : 48,0 КГц
Метод сжатия : С потерями
Язык : English
Меню
Продолжительность : 23 м.
00:00:00.000 : Chapter 1
00:23:09.666 : Chapter 2
List (Audio) : 0
Общее
Полное имя : C:\Users\Roman\Desktop\Alien Nation (M4) - The Enemy Within (1996)\Alien Nation (M4) - The Enemy Within\VTS_04_1.VOB
Формат : MPEG-PS
Размер файла : 731 Мбайт
Продолжительность : 23 м.
Режим общего битрейта : Переменный
Общий поток : 4408 Кбит/сек
Библиотека кодирования : encoded by TMPGEnc (ver. 2.524.63.181)
Видео
Идентификатор : 224 (0xE0)
Формат : MPEG Video
Версия формата : Version 2
Профиль формата : Main@Main
Параметр BVOP формата : Да
Параметр матрицы формата : Выборочная
Параметр GOP формата : Variable
Продолжительность : 23 м.
Вид битрейта : Переменный
Битрейт : 4129 Кбит/сек
Ширина : 720 пикселей
Высота : 480 пикселей
Соотношение сторон : 4:3
Частота кадров : 29,970 (30000/1001) кадров/сек
Стандарт вещания : Component
Цветовое пространство : YUV
Субдискретизация насыщенности : 4:2:0
Битовая глубина : 8 бит
Метод сжатия : С потерями
Бит/(Пиксели*Кадры) : 0.399
Временной код первого кадра : 00:00:00:00
Оригинал временного кода : Group of pictures header
Размер потока : 685 Мбайт (94%)
Библиотека кодирования : TMPGEnc 2.524.63.181
Основные цвета : BT.601 NTSC
Характеристики трансфера : BT.601
Коэффициенты матрицы : BT.601
Аудио
Идентификатор : 189 (0xBD)-128 (0x80)
Формат : AC-3
Формат/Информация : Audio Coding 3
Расширение режима : CM (complete main)
Параметр Endianness формата : Big
Режим смешивания : DVD-Video
Продолжительность : 23 м.
Вид битрейта : Постоянный
Битрейт : 192 Кбит/сек
Каналы : 2 канала
Расположение каналов : Front: L R
Частота : 48,0 КГц
Частота кадров : 31,250 кадров/сек (1536 spf)
Метод сжатия : С потерями
Размер потока : 31,8 Мбайт (4%)
Меню
Общее
Полное имя : C:\Users\Roman\Desktop\Alien Nation (M4) - The Enemy Within (1996)\Alien Nation (M4) - The Enemy Within\VTS_05_0.BUP
Формат : DVD Video
Профиль формата : Program
Размер файла : 18,0 Кбайт
Продолжительность : 26 с.
Режим общего битрейта : Переменный
Общий поток : 5564 бит/сек
Видео
Идентификатор : 224 (0xE0)
Формат : MPEG Video
Версия формата : Version 2
Продолжительность : 26 с.
Вид битрейта : Переменный
Ширина : 720 пикселей
Высота : 480 пикселей
Соотношение сторон : 4:3
Частота кадров : 29,970 (29970/1000) кадров/сек
Стандарт вещания : NTSC
Метод сжатия : С потерями
Текст
Идентификатор : 32 (0x20)
Формат : RLE
Формат/Информация : Run-length encoding
Битовая глубина : 2 бит
Меню #1
Продолжительность : 500 мс.
00:00:00.000 : Chapter 1
List (Subtitles 4/3) : 0
List (Subtitles Wide) : 0
List (Subtitles Letterbox) : 0
List (Subtitles Pan&Scan) : 0
Меню #2
Продолжительность : 26 с.
00:00:00.000 : Chapter 1 / Chapter 2 / Chapter 3 / Chapter 4 / Chapter 5 / Chapter 6 / Chapter 7 / Chapter 8 / Chapter 9 / Chapter 10 / Chapter 11 / Chapter 12 / Chapter 13 / Chapter 14 / Chapter 15 / Chapter 16 / Chapter 17 / Chapter 18 / Chapter 19 / Chapter 20 / Chapter 21 / Chapter 22 / Chapter 23 / Chapter 24 / Chapter 25 / Chapter 26 / Chapter 27 / Chapter 28 / Chapter 29 / Chapter 30 / Chapter 31 / Chapter 32 / Chapter 33 / Chapter 34 / Chapter 35 / Chapter 36 / Chapter 37 / Chapter 38 / Chapter 39 / Chapter 40 / Chapter 41 / Chapter 42 / Chapter 43 / Chapter 44 / Chapter 45 / Chapter 46 / Chapter 47 / Chapter 48 / Chapter 49 / Chapter 50 / Chapter 51 / Chapter 52 / Chapter 53
List (Subtitles 4/3) : 0
List (Subtitles Wide) : 0
List (Subtitles Letterbox) : 0
List (Subtitles Pan&Scan) : 0
Общее
Полное имя : C:\Users\Roman\Desktop\Alien Nation (M4) - The Enemy Within (1996)\Alien Nation (M4) - The Enemy Within\VTS_05_0.IFO
Формат : DVD Video
Профиль формата : Program
Размер файла : 18,0 Кбайт
Продолжительность : 26 с.
Режим общего битрейта : Переменный
Общий поток : 5564 бит/сек
Видео
Идентификатор : 224 (0xE0)
Формат : MPEG Video
Версия формата : Version 2
Продолжительность : 26 с.
Вид битрейта : Переменный
Ширина : 720 пикселей
Высота : 480 пикселей
Соотношение сторон : 4:3
Частота кадров : 29,970 (29970/1000) кадров/сек
Стандарт вещания : NTSC
Метод сжатия : С потерями
Текст
Идентификатор : 32 (0x20)
Формат : RLE
Формат/Информация : Run-length encoding
Битовая глубина : 2 бит
Меню #1
Продолжительность : 500 мс.
00:00:00.000 : Chapter 1
List (Subtitles 4/3) : 0
List (Subtitles Wide) : 0
List (Subtitles Letterbox) : 0
List (Subtitles Pan&Scan) : 0
Меню #2
Продолжительность : 26 с.
00:00:00.000 : Chapter 1 / Chapter 2 / Chapter 3 / Chapter 4 / Chapter 5 / Chapter 6 / Chapter 7 / Chapter 8 / Chapter 9 / Chapter 10 / Chapter 11 / Chapter 12 / Chapter 13 / Chapter 14 / Chapter 15 / Chapter 16 / Chapter 17 / Chapter 18 / Chapter 19 / Chapter 20 / Chapter 21 / Chapter 22 / Chapter 23 / Chapter 24 / Chapter 25 / Chapter 26 / Chapter 27 / Chapter 28 / Chapter 29 / Chapter 30 / Chapter 31 / Chapter 32 / Chapter 33 / Chapter 34 / Chapter 35 / Chapter 36 / Chapter 37 / Chapter 38 / Chapter 39 / Chapter 40 / Chapter 41 / Chapter 42 / Chapter 43 / Chapter 44 / Chapter 45 / Chapter 46 / Chapter 47 / Chapter 48 / Chapter 49 / Chapter 50 / Chapter 51 / Chapter 52 / Chapter 53
List (Subtitles 4/3) : 0
List (Subtitles Wide) : 0
List (Subtitles Letterbox) : 0
List (Subtitles Pan&Scan) : 0
Общее
Полное имя : C:\Users\Roman\Desktop\Alien Nation (M4) - The Enemy Within (1996)\Alien Nation (M4) - The Enemy Within\VTS_05_1.VOB
Формат : MPEG-PS
Размер файла : 11,8 Мбайт
Продолжительность : 33 мс.
Общий поток : 2990 Мбит/сек
Библиотека кодирования : encoded by TMPGEnc (ver. 2.524.63.181)
Видео
Идентификатор : 224 (0xE0)
Формат : MPEG Video
Версия формата : Version 2
Профиль формата : Main@Main
Параметр BVOP формата : Нет
Параметр матрицы формата : Выборочная
Параметр GOP формата : N=1
Продолжительность : 33 мс.
Ширина : 720 пикселей
Высота : 480 пикселей
Соотношение сторон : 4:3
Частота кадров : 29,970 (30000/1001) кадров/сек
Стандарт вещания : NTSC
Цветовое пространство : YUV
Субдискретизация насыщенности : 4:2:0
Битовая глубина : 8 бит
Тип развёртки : Прогрессивная
Метод сжатия : С потерями
Библиотека кодирования : TMPGEnc 2.524.63.181
Основные цвета : BT.601 NTSC
Характеристики трансфера : BT.601
Коэффициенты матрицы : BT.601
Текст
Идентификатор : 189 (0xBD)-32 (0x20)
Формат : RLE
Формат/Информация : Run-length encoding
Режим смешивания : DVD-Video
Меню

Скриншот c названием фильма

Скриншоты



cd Рип дополнительно залит на ОБЛАКО cd2
[Profile] [PM]

CROM@G ®

Gender: Male

Longevity: 5 years

Posts: 3371

Location: Прибалтика

Post 27-Aug-2016 18:59 (after 4 minutes)

[Quote]

Ололо как быстро поехало
[Profile] [PM]

kandid

Gender: Male

Longevity: 4 years 6 months

Posts: 24

Location: Москва

Post 28-Aug-2016 17:09 (after 22 hours)

[Quote]

Это 3-й DVD после "Миллениума" и "Души и тела", или я что-то пропустил?
[Profile] [PM]

CROM@G ®

Gender: Male

Longevity: 5 years

Posts: 3371

Location: Прибалтика

Post 28-Aug-2016 17:15 (after 5 minutes)

[Quote]

kandid, Пропустил Мишка тебе же сказали тыкать мне в профиль http://kosmoaelita.com/viewtopic.php?t=2101
[Profile] [PM]

kandid

Gender: Male

Longevity: 4 years 6 months

Posts: 24

Location: Москва

Post 28-Aug-2016 17:30 (after 15 minutes)

[Quote]

Упс, нашел "Темный горизонт", но подожду, когда добавят многолоску ;)
[Profile] [PM]
Display posts:    
Reply to topic

Current time is: 20-Sep 16:21

All times are UTC + 3



You cannot post new topics in this forum
You cannot reply to topics in this forum
You cannot edit your posts in this forum
You cannot delete your posts in this forum
You cannot vote in polls in this forum
You cannot attach files in this forum
You cannot download files in this forum