Годзилла / Godzilla (Роланд Эммерих) [1998, США, Япония, фантастика, боевик, триллер, BDRip 1080p] [4K Remastered] (ДБ : СЕЕ) (ПМ : ОРТ) (ПМ : Видеосервис) (ПМ : Украинский, К1) (АО : А.Гаврилов) (АО : Ю.Живов) (АО : Н.Антонов) (БП : Оригинал) (БП : Оригинал (комментарии)) (Sub Eng) (Sub Eng SDH) (Sub Eng (комментарии)) (Sub Rus) (Sub Rus (форсированные))

Reply to topic
DL-List and Torrent activity
Size:  14.61 GB   |    Registered:  2 years 11 months   |    Completed:  6 times

Seeder not seen: 4 days

 
   
 
 
 
Author Message

Faer ®

Gender: Male

Longevity: 4 years 7 months

Posts: 346

Location: Сербия

Post 26-Aug-2016 14:08

[Quote]

Годзилла / Godzilla / 4K Remastered
Страна: США, Япония
Жанр: фантастика, боевик, триллер
Год выпуска: 1998
Продолжительность: 02:18:43
Перевод: Профессиональный (дублированный) СЕЕ
Перевод 2: Профессиональный (многоголосый) ОРТ
Перевод 3: Профессиональный (многоголосый) Видеосервис
Перевод 4: Профессиональный (многоголосый) Украинский, К1
Перевод 5 Профессиональный (двухголосый, закадровый)
Перевод 6 Авторский (одноголосый, закадровый) А. Гаврилов
Перевод 7 Авторский (одноголосый, закадровый) Ю. Живов
Перевод 8 Авторский (одноголосый, закадровый) Н. Антонов
Перевод 9 Оригинал (английский)
Перевод 10 Оригинал (английский) (комментарии)
Cубтитры: английские, английские SDH, английские (комментарии), русские, русские форсированные
Режиссер: Роланд Эммерих
В ролях: Мэттью Бродерик, Жан Рено, Мария Питилло, Хэнк Азария, Кевин Данн, Майкл Лернер, Гарри Ширер, Арабелла Филд, Викки Льюис, Даг Сэвант
Описание: Из тихоокеанских джунглей на Нью — Йорк надвинулась страшная катастрофа. На глазах у потрясенных жителей рушатся небоскребы, переворачиваются автобусы, уходят под землю целые кварталы. Но это не ураган и не землетрясение. Это — Годзилла, самое ужасное чудовище в истории.
Для него человеческая цивилизация — лишь жалкий муравейник, дома — спичечные коробки, вертолеты — назойливые стрекозы. Мегаполису грозит полное уничтожение. Армия, оснащенная по последнему слову техники, не в силах противостоять гигантской ящерице. Небольшой группе смельчаков предстоит выяснить, зачем Годзилла пришел в Нью — Йорк. Возможно, тогда им удастся спасти город…

Качество видео: BDRip 1080p
Формат видео: MKV
Видео: MPEG4, 1920х804, 2,40:1, 23.976 fps, 11,2 Мбит/с
Аудио: 48 kHz, AC3 Dolby Digital, 3/2 (L,C,R,l,r) + LFE ch, 384 Кбит/с
Аудио 2: 48 kHz, AC3 Dolby Digital, 2/0 (L,R) ch, 192 Кбит/с
Аудио 3: 48 kHz, AC3 Dolby Digital, 2/0 (L,R) ch, 192 Кбит/с
Аудио 4: 48 kHz, AC3 Dolby Digital, 3/2 (L,C,R,l,r) + LFE ch, 384 Кбит/с
Аудио 5: 48 kHz, AC3 Dolby Digital, 2/0 (L,R) ch, 192 Кбит/с
Аудио 6:48 kHz, AC3 Dolby Digital, 3/2 (L,C,R,l,r) + LFE ch, 384 Кбит/с
Аудио 7: 48 kHz, AC3 Dolby Digital, 3/2 (L,C,R,l,r) + LFE ch, 384 Кбит/с
Аудио 8: 48 kHz, AC3 Dolby Digital, 2/0 (L,R) ch, 192 Кбит/с
Аудио 9: 48 kHz, DTS, 6 каналов, 1536 Кбит/с
Аудио 10: 48 kHz, VORBIS, стерео, 80 Кбит/с
Формат субтитров: softsub (SRT)

MediaInfo

Общее
Уникальный идентификатор : 222464000470905039338598607758443959005 (0xA75D020CA628447E9DA036CDB74052DD)
Полное имя : S:\Godzilla.1998.BluRay.1080p.mkv
Формат : Matroska
Версия формата : Version 4 / Version 2
Размер файла : 14,6 Гбайт
Продолжительность : 2 ч. 18 м.
Режим общего битрейта : Переменный
Общий поток : 15,1 Мбит/сек
Название фильма : Godzilla.1998.Mastered.4K.BluRay.1080p.DTS.x264
Дата кодирования : UTC 2016-08-30 05:03:28
Программа кодирования : mkvmerge v9.4.0 ('Knurl') 64bit
Библиотека кодирования : libebml v1.3.4 + libmatroska v1.4.5
DURATION : 02:18:43.346000000
NUMBER_OF_FRAMES : 482259
NUMBER_OF_BYTES : 74277690
_STATISTICS_WRITING_APP : mkvmerge v9.4.0 ('Knurl') 64bit
_STATISTICS_WRITING_DATE_UTC : 2016-08-30 05:03:28
_STATISTICS_TAGS : BPS DURATION NUMBER_OF_FRAMES NUMBER_OF_BYTES
Видео
Идентификатор : 1
Формат : AVC
Формат/Информация : Advanced Video Codec
Профиль формата : High@L4.1
Параметр CABAC формата : Да
Параметр ReFrames формата : 5 кадров
Идентификатор кодека : V_MPEG4/ISO/AVC
Продолжительность : 2 ч. 18 м.
Битрейт : 11,2 Мбит/сек
Ширина : 1920 пикселей
Высота : 804 пикселя
Соотношение сторон : 2,40:1
Режим частоты кадров : Постоянный
Частота кадров : 23,976 кадра/сек
Цветовое пространство : YUV
Субдискретизация насыщенности : 4:2:0
Битовая глубина : 8 бит
Тип развёртки : Прогрессивная
Бит/(Пиксели*Кадры) : 0.303
Размер потока : 10,5 Гбайт (72%)
Заголовок : Godzilla 1998 Mastered 4K BluRay 1080p
Библиотека кодирования : x264 core 133 r2334+704+50 a7549b7 tMod [8-bit@4:2:0 X86_64]
Настройки программы : cabac=1 / ref=5 / deblock=1:-3:-3 / analyse=0x3:0x113 / me=umh / subme=10 / psy=1 / fade_compensate=0.00 / psy_rd=1.01:0.00 / mixed_ref=1 / me_range=32 / chroma_me=1 / trellis=2 / 8x8dct=1 / cqm=0 / deadzone=21,11 / fast_pskip=1 / chroma_qp_offset=-2 / threads=16 / lookahead_threads=2 / sliced_threads=0 / nr=0 / decimate=1 / interlaced=0 / bluray_compat=0 / constrained_intra=0 / fgo=0 / bframes=8 / b_pyramid=2 / b_adapt=2 / b_bias=0 / direct=3 / weightb=1 / open_gop=0 / weightp=2 / keyint=240 / keyint_min=23 / scenecut=40 / intra_refresh=0 / rc_lookahead=60 / rc=2pass / mbtree=1 / bitrate=11199 / ratetol=1.0 / qcomp=0.70 / qpmin=0 / qpmax=69 / qpstep=4 / cplxblur=20.0 / qblur=0.5 / vbv_maxrate=50000 / vbv_bufsize=50000 / nal_hrd=none / ip_ratio=1.30 / aq=2:0.80 / aq-sensitivity=10.00 / aq-factor=1.00:1.00:1.00 / aq2=0 / aq3=0
Язык : English
Default : Да
Forced : Нет
DURATION : 02:18:43.274000000
NUMBER_OF_FRAMES : 199559
NUMBER_OF_BYTES : 11642897821
_STATISTICS_WRITING_APP : mkvmerge v9.4.0 ('Knurl') 64bit
_STATISTICS_WRITING_DATE_UTC : 2016-08-30 05:03:28
_STATISTICS_TAGS : BPS DURATION NUMBER_OF_FRAMES NUMBER_OF_BYTES
Аудио #1
Идентификатор : 3
Формат : AC-3
Формат/Информация : Audio Coding 3
Расширение режима : CM (complete main)
Параметр Endianness формата : Big
Идентификатор кодека : A_AC3
Продолжительность : 2 ч. 18 м.
Вид битрейта : Постоянный
Битрейт : 384 Кбит/сек
Каналы : 6 каналов
Расположение каналов : Front: L C R, Side: L R, LFE
Частота : 48,0 КГц
Битовая глубина : 16 бит
Метод сжатия : С потерями
Размер потока : 381 Мбайт (3%)
Заголовок : СЕЕ
Язык : Russian
Default : Да
Forced : Нет
Аудио #2
Идентификатор : 4
Формат : AC-3
Формат/Информация : Audio Coding 3
Расширение режима : CM (complete main)
Параметр Endianness формата : Big
Идентификатор кодека : A_AC3
Продолжительность : 2 ч. 18 м.
Вид битрейта : Постоянный
Битрейт : 192 Кбит/сек
Каналы : 2 канала
Расположение каналов : Front: L R
Частота : 48,0 КГц
Битовая глубина : 16 бит
Метод сжатия : С потерями
Размер потока : 191 Мбайт (1%)
Заголовок : ОРТ
Язык : Russian
Default : Нет
Forced : Нет
Аудио #3
Идентификатор : 5
Формат : AC-3
Формат/Информация : Audio Coding 3
Расширение режима : CM (complete main)
Параметр Endianness формата : Big
Идентификатор кодека : A_AC3
Продолжительность : 2 ч. 18 м.
Вид битрейта : Постоянный
Битрейт : 192 Кбит/сек
Каналы : 2 канала
Расположение каналов : Front: L R
Частота : 48,0 КГц
Битовая глубина : 16 бит
Метод сжатия : С потерями
Размер потока : 191 Мбайт (1%)
Заголовок : Видеосервис
Язык : Russian
Default : Нет
Forced : Нет
Аудио #4
Идентификатор : 6
Формат : AC-3
Формат/Информация : Audio Coding 3
Расширение режима : CM (complete main)
Параметр Endianness формата : Big
Идентификатор кодека : A_AC3
Продолжительность : 2 ч. 18 м.
Вид битрейта : Постоянный
Битрейт : 384 Кбит/сек
Каналы : 6 каналов
Расположение каналов : Front: L C R, Side: L R, LFE
Частота : 48,0 КГц
Битовая глубина : 16 бит
Метод сжатия : С потерями
Размер потока : 381 Мбайт (3%)
Заголовок : Укр. К1
Язык : Ukrainian
Default : Нет
Forced : Нет
Аудио #5
Идентификатор : 7
Формат : AC-3
Формат/Информация : Audio Coding 3
Расширение режима : CM (complete main)
Параметр Endianness формата : Big
Идентификатор кодека : A_AC3
Продолжительность : 2 ч. 18 м.
Вид битрейта : Постоянный
Битрейт : 192 Кбит/сек
Каналы : 2 канала
Расположение каналов : Front: L R
Частота : 48,0 КГц
Битовая глубина : 16 бит
Метод сжатия : С потерями
Размер потока : 191 Мбайт (1%)
Заголовок : Двухголосый
Язык : Russian
Default : Нет
Forced : Нет
Аудио #6
Идентификатор : 8
Формат : AC-3
Формат/Информация : Audio Coding 3
Расширение режима : CM (complete main)
Параметр Endianness формата : Big
Идентификатор кодека : A_AC3
Продолжительность : 2 ч. 18 м.
Вид битрейта : Постоянный
Битрейт : 384 Кбит/сек
Каналы : 6 каналов
Расположение каналов : Front: L C R, Side: L R, LFE
Частота : 48,0 КГц
Битовая глубина : 16 бит
Метод сжатия : С потерями
Размер потока : 381 Мбайт (3%)
Заголовок : Гаврилов
Язык : Russian
Default : Нет
Forced : Нет
Аудио #7
Идентификатор : 9
Формат : AC-3
Формат/Информация : Audio Coding 3
Расширение режима : CM (complete main)
Параметр Endianness формата : Big
Идентификатор кодека : A_AC3
Продолжительность : 2 ч. 18 м.
Вид битрейта : Постоянный
Битрейт : 384 Кбит/сек
Каналы : 6 каналов
Расположение каналов : Front: L C R, Side: L R, LFE
Частота : 48,0 КГц
Битовая глубина : 16 бит
Метод сжатия : С потерями
Размер потока : 381 Мбайт (3%)
Заголовок : Живов
Язык : Russian
Default : Нет
Forced : Нет
Аудио #8
Идентификатор : 10
Формат : AC-3
Формат/Информация : Audio Coding 3
Расширение режима : CM (complete main)
Параметр Endianness формата : Big
Идентификатор кодека : A_AC3
Продолжительность : 2 ч. 18 м.
Вид битрейта : Постоянный
Битрейт : 192 Кбит/сек
Каналы : 2 канала
Расположение каналов : Front: L R
Частота : 48,0 КГц
Битовая глубина : 16 бит
Метод сжатия : С потерями
Размер потока : 191 Мбайт (1%)
Заголовок : Антонов
Язык : Russian
Default : Нет
Forced : Нет
Аудио #9
Идентификатор : 15
Формат : DTS
Формат/Информация : Digital Theater Systems
Режим : 16
Параметр Endianness формата : Big
Идентификатор кодека : A_DTS
Продолжительность : 2 ч. 18 м.
Вид битрейта : Постоянный
Битрейт : 1509 Кбит/сек
Каналы : 6 каналов
Расположение каналов : Front: L C R, Side: L R, LFE
Частота : 48,0 КГц
Битовая глубина : 24 бит
Метод сжатия : С потерями
Размер потока : 1,46 Гбайт (10%)
Заголовок : DTS 5.1 1536 kbps Original
Язык : English
Default : Нет
Forced : Нет
Аудио #10
Идентификатор : 16
Формат : Vorbis
Параметр Floor формата : 1
Идентификатор кодека : A_VORBIS
Продолжительность : 2 ч. 18 м.
Вид битрейта : Переменный
Битрейт : 80,0 Кбит/сек
Каналы : 2 канала
Частота : 48,0 КГц
Метод сжатия : С потерями
Размер потока : 79,4 Мбайт (1%)
Заголовок : Commentary Track - Vorbis 2.0 80 kbps
Библиотека кодирования : libVorbis 1.2 (UTC 2007-06-22)
Язык : English
Default : Нет
Forced : Нет
Текст #1
Идентификатор : 2
Формат : UTF-8
Идентификатор кодека : S_TEXT/UTF8
Идентификатор кодека/Информация : UTF-8 Plain Text
Заголовок : Commentary
Язык : English
Default : Нет
Forced : Нет
Текст #2
Идентификатор : 11
Формат : UTF-8
Идентификатор кодека : S_TEXT/UTF8
Идентификатор кодека/Информация : UTF-8 Plain Text
Заголовок : Англ. SDH
Язык : English
Default : Да
Forced : Нет
Текст #3
Идентификатор : 12
Формат : UTF-8
Идентификатор кодека : S_TEXT/UTF8
Идентификатор кодека/Информация : UTF-8 Plain Text
Заголовок : Англ.
Язык : English
Default : Нет
Forced : Нет
Текст #4
Идентификатор : 13
Формат : UTF-8
Идентификатор кодека : S_TEXT/UTF8
Идентификатор кодека/Информация : UTF-8 Plain Text
Заголовок : Русские
Язык : Russian
Default : Нет
Forced : Нет
Текст #5
Идентификатор : 14
Формат : UTF-8
Идентификатор кодека : S_TEXT/UTF8
Идентификатор кодека/Информация : UTF-8 Plain Text
Заголовок : Русск. форсированные
Язык : Russian
Default : Нет
Forced : Нет
Меню
00:00:00.000 : en:00:00:00.000
00:07:48.426 : en:00:07:48.426
00:17:25.461 : en:00:17:25.461
00:25:28.235 : en:00:25:28.235
00:36:53.837 : en:00:36:53.837
00:41:48.214 : en:00:41:48.214
00:48:19.730 : en:00:48:19.730
01:01:35.942 : en:01:01:35.942
01:11:06.095 : en:01:11:06.095
01:21:38.685 : en:01:21:38.685
01:30:26.212 : en:01:30:26.212
01:39:14.157 : en:01:39:14.157
01:50:24.159 : en:01:50:24.159
01:52:28.659 : en:01:52:28.659
02:00:36.771 : en:02:00:36.771
02:05:56.883 : en:02:05:56.883

Скриншоты




[img]i64.fastpic.ru/big/2014/0530/3c/_67dd86de09b516b2c64f3462f90fde3c.png[/img]
cd Рип дополнительно залит на mail.ru cd2
Godzilla.1080.torrent
 GOLD TORRENT! DOWNLOAD TRAFFIC DOES NOT CONSIDER! 
Torrent: Registered [ 2016-08-30 08:15 ]

Download .torrent

Download

37 KB

Status: checked
Completed: 6 times
Size: 14.61 GB
 


Last edited by Faer on 2016-08-30 08:15; edited 5 times in total
[Profile] [PM]

Faer ®

Gender: Male

Longevity: 4 years 7 months

Posts: 346

Location: Сербия

Post 26-Aug-2016 14:10 (after 1 minute)

[Quote]

***шутка про 4к ремастеред в 720х304***
На облако залью чуть позже.
Есть ещё русские субтитры на французскую речь, но французскую дорожку обломался добавлять (да и имхо не нужно оно никому).
[Profile] [PM]

$Shorox

Gender: Male

Longevity: 6 years 8 months

Posts: 1888

Post 26-Aug-2016 16:15 (after 2 hours 5 minutes)

[Quote]

Faer,
Надо было бы побольше размером. Люблю фильмы про Годзилл.
[Profile] [PM]

croMAG

Gender: Male

Longevity: 3 years 11 months

Posts: 2200

Location: Прибалтика

Post 26-Aug-2016 19:56 (after 3 hours)

[Quote]

Никогда не понимал Этож нахера стока переводов
[Profile] [PM]

croMAG

Gender: Male

Longevity: 3 years 11 months

Posts: 2200

Location: Прибалтика

Post 26-Aug-2016 19:57 (after 1 minute)

[Quote]

А че в ролях не указан Жан Рено ??
[Profile] [PM]

Faer ®

Gender: Male

Longevity: 4 years 7 months

Posts: 346

Location: Сербия

Post 26-Aug-2016 22:24 (after 2 hours 27 minutes)

[Quote]

15762Faer,
Надо было бы побольше размером. Люблю фильмы про Годзилл.
Я видел 1920х800, но не уверен что туда все аудиодороги подойдут. А ретаймить - руки кривые у меня.
Да, я и думаю, что надо годзиллоколлекцию оформить.
15765Никогда не понимал Этож нахера стока переводов
Для разнообразия. Ну и для коллекции.
15766А че в ролях не указан Жан Рено ??
Указан. Второй в списке.
[Profile] [PM]

admin

Gender: Male

Longevity: 6 years 11 months

Posts: 4725

Location: Україна

Post 26-Aug-2016 23:04 (after 39 minutes)

[Quote]

15771
15762Faer,
Надо было бы побольше размером. Люблю фильмы про Годзилл.
Я видел 1920х800, но не уверен что туда все аудиодороги подойдут. А ретаймить - руки кривые у меня.
Если рипы с одного и того же блюра, то почему им не подойти?
Длина же фильма точно такая же. Только разрешение видео другое.
Все они одного поля ягоды
https://rutracker.org/forum/viewtopic.php?t=4746766
https://rutracker.org/forum/viewtopic.php?t=4745788
https://rutracker.org/forum/viewtopic.php?t=4525712
[Profile] [PM]

croMAG

Gender: Male

Longevity: 3 years 11 months

Posts: 2200

Location: Прибалтика

Post 26-Aug-2016 23:17 (after 12 minutes)

[Quote]

Faer, Для коллекции? Все это мне напоминает жопника Который в 5 двд хочет запихать 6 авторских переводов Если Годзилла коллекцию оформлять надо тогда для разнообразия и Мотру добавить
[Profile] [PM]

Faer ®

Gender: Male

Longevity: 4 years 7 months

Posts: 346

Location: Сербия

Post 27-Aug-2016 00:25 (after 1 hour 8 minutes)

[Quote]

Если рипы с одного и того же блюра, то почему им не подойти?
Длина же фильма точно такая же. Только разрешение видео другое.
Все они одного поля ягоды
https://rutracker.org/forum/viewtopic.php?t=4746766
https://rutracker.org/forum/viewtopic.php?t=4745788
https://rutracker.org/forum/viewtopic.php?t=4525712
Ок, через пару дней переоформлю с 1080р. 720 делать?
15773Faer, Для коллекции? Все это мне напоминает жопника Который в 5 двд хочет запихать 6 авторских переводов Если Годзилла коллекцию оформлять надо тогда для разнообразия и Мотру добавить
Не гонюсь за двд, главное чтоб для истории сохранились все версии озвучек и сабов.
[Profile] [PM]

admin

Gender: Male

Longevity: 6 years 11 months

Posts: 4725

Location: Україна

Post 27-Aug-2016 00:47 (after 21 minute)

[Quote]

Достаточно 1080р и чего промежуточного небольшого, типа BDRip-AVC - 1024 x ~430
[Profile] [PM]

croMAG

Gender: Male

Longevity: 3 years 11 months

Posts: 2200

Location: Прибалтика

Post 27-Aug-2016 07:38 (after 6 hours)

[Quote]

Faer,
Покупаю права на издательство bq Как Доктор истории по специальности
[Profile] [PM]

Faer ®

Gender: Male

Longevity: 4 years 7 months

Posts: 346

Location: Сербия

Post 30-Aug-2016 08:11 (after 3 days)

[Quote]

Видео заменено на 1080р. Оригинальная звуковая дорожка заменена на более качественную. Добавлена аудиодорожка с комментариями.
[Profile] [PM]

$Shorox

Gender: Male

Longevity: 6 years 8 months

Posts: 1888

Post 30-Aug-2016 08:22 (after 10 minutes)

[Quote]

Faer,
Спасибо. Если есть возможность, залить на облако майл.ру. Оттуда скачаю.
[Profile] [PM]

Faer ®

Gender: Male

Longevity: 4 years 7 months

Posts: 346

Location: Сербия

Post 30-Aug-2016 08:23 (after 1 minute)

[Quote]

15855Faer,
Спасибо. Если есть возможность, залить на облако майл.ру. Оттуда скачаю.
В процессе. Как раз видео в архивы оформляю.
[Profile] [PM]
Quick Reply

Name:

            
Heads necessary to send messages to enable JavaScript
Display posts:    
Reply to topic

Current time is: 21-Aug 01:34

All times are UTC + 3



You can post new topics in this forum
You can reply to topics in this forum
You cannot edit your posts in this forum
You cannot delete your posts in this forum
You cannot vote in polls in this forum
You cannot attach files in this forum
You can download files in this forum