Нация пришельцев Темный Горизонт / Alien Nation: Dark Horizon (Кеннет Джонсон / Kenneth Johnson) [1994., США Германия, Фантастика, драма., DVD9] АО (),

Reply to topic
 
Author Message

CROM@G ®

Gender: Male

Longevity: 5 years

Posts: 3371

Location: Прибалтика

Post 23-Aug-2016 19:14

[Quote]

Нация пришельцев Темный Горизонт / Alien Nation: Dark Horizon
Страна: США, Германия, Foxstar Productions, Kenneth Johnson Productions, Twentieth Century Fox Film Corporation
Жанр: Фантастика, драма.
Год выпуска: 1994.
Продолжительность: 01:32:59.
Перевод: Авторский (одноголосый)
Режиссер: Кеннет Джонсон /Kenneth Johnson/.
В ролях: Рокне С. О`Бэннон /Rockne S. O'Bannon/, Дайан Фролов /Diane Frolov/, Эндрю Шнайдер /Andrew Schneider/.
Продюсеры: Дайан Фролов /Diane Frolov/, Кеннет Джонсон /Kenneth Johnson/, Рон Митчел /Ron Mitchell/, Эндрю Шнайдер /Andrew Schneider/, Стив Белл /Steve Bell/, Кевин Барнс /Kevin Burns/.
Описание: Пришельцы живут теперь среди землян как обычные люди. Но движение сопротивления продолжается. Пришельцы, однако, никому не хотят причинить вреда, они просто хотят жить. Многие земляне привыкли к ним и даже оказались способными на любовь. Хрупкий мир нарушается покушением на семью пришельцев при помощи цветов, пропитанных смертельным вирусом.
А в это время на подлете к Земле находится огромный корабль с целой армией «слизняков», как многие называют этот чужой народ. Они хотят захватить землю. Теперь мир разбился на тех, кто хочет уничтожить землян, тех, кто хочет уничтожить пришельцев, и тех землян и пришельцев, которые хотят только мира.
Доп. информация: Короче проторчал многоголосый перевод поэтому здесь авторский Вроде как Гаврилов За тянучу из инэта спасибы admin За монтаж anvic И заметил такую деталь . Оказывается один из авторов фильмов ,,Нация пришельцев ,,Рокне С. О`Бэннон .Тот кто создал сериал ,,На краю вселенной ,,
Качество видео: DVD9
Формат видео: DVD Video
Видео: 720х480 4:3 MPEG Video NTSC 29.970 к.сек
Аудио: AC-3 48 Кгц 2 ch битрейт переменный
Аудио 2: AC-3 48 Кгц 2 ch битрейт переменный
Проект croMAG



MediaInfo

Общее
Полное имя : C:\Users\Roman\Alien Nation Dark Horizon\VIDEO_TS.BUP
Формат : DVD Video
Профиль формата : Menu
Размер файла : 20,0 Кбайт
Режим общего битрейта : Переменный
Видео
Идентификатор : 224 (0xE0)
Формат : MPEG Video
Версия формата : Version 2
Вид битрейта : Переменный
Ширина : 720 пикселей
Высота : 480 пикселей
Соотношение сторон : 4:3
Частота кадров : 29,970 (29970/1000) кадров/сек
Стандарт вещания : NTSC
Метод сжатия : С потерями
Аудио
Формат : AC-3
Формат/Информация : Audio Coding 3
Каналы : 2 канала
Частота : 48,0 КГц
Метод сжатия : С потерями
Текст
Формат : RLE
Формат/Информация : Run-length encoding
Битовая глубина : 2 бит
Общее
Полное имя : C:\Users\Roman\Alien Nation Dark Horizon\VIDEO_TS.IFO
Формат : DVD Video
Профиль формата : Menu
Размер файла : 20,0 Кбайт
Режим общего битрейта : Переменный
Видео
Идентификатор : 224 (0xE0)
Формат : MPEG Video
Версия формата : Version 2
Вид битрейта : Переменный
Ширина : 720 пикселей
Высота : 480 пикселей
Соотношение сторон : 4:3
Частота кадров : 29,970 (29970/1000) кадров/сек
Стандарт вещания : NTSC
Метод сжатия : С потерями
Аудио
Формат : AC-3
Формат/Информация : Audio Coding 3
Каналы : 2 канала
Частота : 48,0 КГц
Метод сжатия : С потерями
Текст
Формат : RLE
Формат/Информация : Run-length encoding
Битовая глубина : 2 бит
Общее
Полное имя : C:\Users\Roman\Alien Nation Dark Horizon\VIDEO_TS.VOB
Формат : MPEG-PS
Размер файла : 20,0 Кбайт
Продолжительность : 320 мс.
Общий поток : 512 Кбит/сек
Видео
Идентификатор : 224 (0xE0)
Формат : MPEG Video
Версия формата : Version 2
Профиль формата : Main@Main
Параметр BVOP формата : Нет
Параметр матрицы формата : Выборочная
Продолжительность : 33 мс.
Максимальный битрейт : 8000 Кбит/сек
Ширина : 720 пикселей
Высота : 480 пикселей
Соотношение сторон : 4:3
Частота кадров : 29,970 (30000/1001) кадров/сек
Стандарт вещания : NTSC
Цветовое пространство : YUV
Субдискретизация насыщенности : 4:2:0
Битовая глубина : 8 бит
Тип развёртки : Прогрессивная
Порядок развёртки : Верхнее поле первое
Метод сжатия : С потерями
Временной код первого кадра : 00:00:00:00
Оригинал временного кода : Group of pictures header
Аудио
Идентификатор : 189 (0xBD)-128 (0x80)
Формат : AC-3
Формат/Информация : Audio Coding 3
Расширение режима : CM (complete main)
Параметр Endianness формата : Big
Режим смешивания : DVD-Video
Продолжительность : 320 мс.
Вид битрейта : Постоянный
Битрейт : 192 Кбит/сек
Каналы : 2 канала
Расположение каналов : Front: L R
Частота : 48,0 КГц
Частота кадров : 31,250 кадров/сек (1536 spf)
Метод сжатия : С потерями
Размер потока : 7,50 Кбайт (38%)
Меню
Общее
Полное имя : C:\Users\Roman\Alien Nation Dark Horizon\VTS_01_0.BUP
Формат : DVD Video
Профиль формата : Program
Размер файла : 72,0 Кбайт
Продолжительность : 1 ч. 32 м.
Режим общего битрейта : Переменный
Общий поток : 106 бит/сек
Видео
Идентификатор : 224 (0xE0)
Формат : MPEG Video
Версия формата : Version 2
Продолжительность : 1 ч. 32 м.
Вид битрейта : Переменный
Ширина : 720 пикселей
Высота : 480 пикселей
Соотношение сторон : 4:3
Частота кадров : 29,970 (29970/1000) кадров/сек
Стандарт вещания : NTSC
Метод сжатия : С потерями
Аудио #1
Идентификатор : 128 (0x80)
Формат : AC-3
Формат/Информация : Audio Coding 3
Продолжительность : 1 ч. 32 м.
Каналы : 2 канала
Частота : 48,0 КГц
Метод сжатия : С потерями
Язык : Russian
Аудио #2
Идентификатор : 129 (0x81)
Формат : AC-3
Формат/Информация : Audio Coding 3
Продолжительность : 1 ч. 32 м.
Каналы : 2 канала
Частота : 48,0 КГц
Метод сжатия : С потерями
Язык : English
Аудио #3
Идентификатор : 130 (0x82)
Формат : AC-3
Формат/Информация : Audio Coding 3
Продолжительность : 1 ч. 32 м.
Каналы : 2 канала
Частота : 48,0 КГц
Метод сжатия : С потерями
Язык : English
Текст #1
Идентификатор : 32 (0x20)
Формат : RLE
Формат/Информация : Run-length encoding
Битовая глубина : 2 бит
Язык : English
Текст #2
Идентификатор : 32 (0x20)
Формат : RLE
Формат/Информация : Run-length encoding
Битовая глубина : 2 бит
Язык : Spanish
Язык, дополнительно : Normal
Текст #3
Идентификатор : 32 (0x20)
Формат : RLE
Формат/Информация : Run-length encoding
Битовая глубина : 2 бит
Язык : Spanish
Язык, дополнительно : Forced
Меню
Продолжительность : 1 ч. 32 м.
00:00:00.000 : Chapter 1
00:04:58.866 : Chapter 2
00:08:44.332 : Chapter 3
00:12:05.198 : Chapter 4
00:16:34.664 : Chapter 5
00:21:38.264 : Chapter 6
00:26:54.430 : Chapter 7
00:31:11.396 : Chapter 8
00:35:15.029 : Chapter 9
00:40:45.429 : Chapter 10
00:44:51.929 : Chapter 11
00:48:16.929 : Chapter 12
00:52:57.029 : Chapter 13
00:57:18.162 : Chapter 14
01:01:35.128 : Chapter 15
01:04:53.528 : Chapter 16
01:06:50.227 : Chapter 17
01:10:59.493 : Chapter 18
01:18:02.593 : Chapter 19
01:26:29.726 : Chapter 20
01:32:52.226 : Chapter 21
List (Audio) : 0 / 1 / 2
List (Subtitles 4/3) : 0 / 1 / 2
List (Subtitles Wide) : 0 / 0 / 0
List (Subtitles Letterbox) : 0 / 0 / 0
List (Subtitles Pan&Scan) : 0 / 0 / 0
Общее
Полное имя : C:\Users\Roman\Alien Nation Dark Horizon\VTS_01_0.IFO
Формат : DVD Video
Профиль формата : Program
Размер файла : 72,0 Кбайт
Продолжительность : 1 ч. 32 м.
Режим общего битрейта : Переменный
Общий поток : 106 бит/сек
Видео
Идентификатор : 224 (0xE0)
Формат : MPEG Video
Версия формата : Version 2
Продолжительность : 1 ч. 32 м.
Вид битрейта : Переменный
Ширина : 720 пикселей
Высота : 480 пикселей
Соотношение сторон : 4:3
Частота кадров : 29,970 (29970/1000) кадров/сек
Стандарт вещания : NTSC
Метод сжатия : С потерями
Аудио #1
Идентификатор : 128 (0x80)
Формат : AC-3
Формат/Информация : Audio Coding 3
Продолжительность : 1 ч. 32 м.
Каналы : 2 канала
Частота : 48,0 КГц
Метод сжатия : С потерями
Язык : Russian
Аудио #2
Идентификатор : 129 (0x81)
Формат : AC-3
Формат/Информация : Audio Coding 3
Продолжительность : 1 ч. 32 м.
Каналы : 2 канала
Частота : 48,0 КГц
Метод сжатия : С потерями
Язык : English
Аудио #3
Идентификатор : 130 (0x82)
Формат : AC-3
Формат/Информация : Audio Coding 3
Продолжительность : 1 ч. 32 м.
Каналы : 2 канала
Частота : 48,0 КГц
Метод сжатия : С потерями
Язык : English
Текст #1
Идентификатор : 32 (0x20)
Формат : RLE
Формат/Информация : Run-length encoding
Битовая глубина : 2 бит
Язык : English
Текст #2
Идентификатор : 32 (0x20)
Формат : RLE
Формат/Информация : Run-length encoding
Битовая глубина : 2 бит
Язык : Spanish
Язык, дополнительно : Normal
Текст #3
Идентификатор : 32 (0x20)
Формат : RLE
Формат/Информация : Run-length encoding
Битовая глубина : 2 бит
Язык : Spanish
Язык, дополнительно : Forced
Меню
Продолжительность : 1 ч. 32 м.
00:00:00.000 : Chapter 1
00:04:58.866 : Chapter 2
00:08:44.332 : Chapter 3
00:12:05.198 : Chapter 4
00:16:34.664 : Chapter 5
00:21:38.264 : Chapter 6
00:26:54.430 : Chapter 7
00:31:11.396 : Chapter 8
00:35:15.029 : Chapter 9
00:40:45.429 : Chapter 10
00:44:51.929 : Chapter 11
00:48:16.929 : Chapter 12
00:52:57.029 : Chapter 13
00:57:18.162 : Chapter 14
01:01:35.128 : Chapter 15
01:04:53.528 : Chapter 16
01:06:50.227 : Chapter 17
01:10:59.493 : Chapter 18
01:18:02.593 : Chapter 19
01:26:29.726 : Chapter 20
01:32:52.226 : Chapter 21
List (Audio) : 0 / 1 / 2
List (Subtitles 4/3) : 0 / 1 / 2
List (Subtitles Wide) : 0 / 0 / 0
List (Subtitles Letterbox) : 0 / 0 / 0
List (Subtitles Pan&Scan) : 0 / 0 / 0
Общее
Полное имя : C:\Users\Roman\Alien Nation Dark Horizon\VTS_01_0.VOB
Формат : MPEG-PS
Размер файла : 1,81 Мбайт
Продолжительность : 30 с.
Общий поток : 507 Кбит/сек
Видео
Идентификатор : 224 (0xE0)
Формат : MPEG Video
Версия формата : Version 2
Профиль формата : Main@Main
Параметр BVOP формата : Нет
Параметр матрицы формата : Выборочная
Параметр GOP формата : N=1
Продолжительность : 33 мс.
Битрейт : 305 Кбит/сек
Максимальный битрейт : 8000 Кбит/сек
Ширина : 720 пикселей
Высота : 480 пикселей
Соотношение сторон : 4:3
Частота кадров : 29,970 (30000/1001) кадров/сек
Стандарт вещания : NTSC
Цветовое пространство : YUV
Субдискретизация насыщенности : 4:2:0
Битовая глубина : 8 бит
Тип развёртки : Прогрессивная
Порядок развёртки : Верхнее поле первое
Метод сжатия : С потерями
Бит/(Пиксели*Кадры) : 0.029
Размер потока : 1,24 Кбайт (0%)
Аудио
Идентификатор : 189 (0xBD)-128 (0x80)
Формат : AC-3
Формат/Информация : Audio Coding 3
Расширение режима : CM (complete main)
Параметр Endianness формата : Big
Режим смешивания : DVD-Video
Продолжительность : 30 с.
Вид битрейта : Постоянный
Битрейт : 192 Кбит/сек
Каналы : 2 канала
Расположение каналов : Front: L R
Частота : 48,0 КГц
Частота кадров : 31,250 кадров/сек (1536 spf)
Метод сжатия : С потерями
Размер потока : 704 Кбайт (38%)
Текст
Идентификатор : 189 (0xBD)-32 (0x20)
Формат : RLE
Формат/Информация : Run-length encoding
Режим смешивания : DVD-Video
Меню
Общее
Полное имя : C:\Users\Roman\Alien Nation Dark Horizon\VTS_01_1.VOB
Формат : MPEG-PS
Размер файла : 1024 Мбайт
Продолжительность : 16 м.
Режим общего битрейта : Переменный
Общий поток : 8470 Кбит/сек
Видео
Идентификатор : 224 (0xE0)
Формат : MPEG Video
Версия формата : Version 2
Профиль формата : Main@Main
Параметр BVOP формата : Да
Параметр матрицы формата : Выборочная
Параметр GOP формата : M=3, N=15
Продолжительность : 16 м.
Вид битрейта : Переменный
Битрейт : 7726 Кбит/сек
Максимальный битрейт : 9194 Кбит/сек
Ширина : 720 пикселей
Высота : 480 пикселей
Соотношение сторон : 4:3
Частота кадров : 29,970 (30000/1001) кадров/сек
Стандарт вещания : NTSC
Цветовое пространство : YUV
Субдискретизация насыщенности : 4:2:0
Битовая глубина : 8 бит
Метод сжатия : С потерями
Бит/(Пиксели*Кадры) : 0.746
Временной код первого кадра : 00:59:58;00
Оригинал временного кода : Group of pictures header
GOP, открыто/закрыто : Открыто
GOP, открыто/закрыто на первом кадре : Закрыто
Размер потока : 934 Мбайт (91%)
Аудио #1
Идентификатор : 189 (0xBD)-128 (0x80)
Формат : AC-3
Формат/Информация : Audio Coding 3
Расширение режима : CM (complete main)
Параметр Endianness формата : Big
Режим смешивания : DVD-Video
Продолжительность : 16 м.
Вид битрейта : Постоянный
Битрейт : 192 Кбит/сек
Каналы : 2 канала
Расположение каналов : Front: L R
Частота : 48,0 КГц
Частота кадров : 31,250 кадров/сек (1536 spf)
Метод сжатия : С потерями
Размер потока : 23,2 Мбайт (2%)
Аудио #2
Идентификатор : 189 (0xBD)-129 (0x81)
Формат : AC-3
Формат/Информация : Audio Coding 3
Расширение режима : CM (complete main)
Параметр Endianness формата : Big
Режим смешивания : DVD-Video
Продолжительность : 16 м.
Вид битрейта : Постоянный
Битрейт : 192 Кбит/сек
Каналы : 2 канала
Расположение каналов : Front: L R
Частота : 48,0 КГц
Частота кадров : 31,250 кадров/сек (1536 spf)
Метод сжатия : С потерями
Размер потока : 23,2 Мбайт (2%)
Аудио #3
Идентификатор : 189 (0xBD)-130 (0x82)
Формат : AC-3
Формат/Информация : Audio Coding 3
Расширение режима : CM (complete main)
Параметр Endianness формата : Big
Режим смешивания : DVD-Video
Продолжительность : 16 м.
Вид битрейта : Постоянный
Битрейт : 192 Кбит/сек
Каналы : 2 канала
Расположение каналов : Front: L R
Частота : 48,0 КГц
Частота кадров : 31,250 кадров/сек (1536 spf)
Метод сжатия : С потерями
Размер потока : 23,2 Мбайт (2%)
Текст
Идентификатор : 224 (0xE0)-CC3
Формат : EIA-608
Режим смешивания, доп. информация : Muxed in Video #1
Вид битрейта : Постоянный
Размер потока : 0,00 байт (0%)
Меню
Общее
Полное имя : C:\Users\Roman\Alien Nation Dark Horizon\VTS_01_2.VOB
Формат : MPEG-PS
Размер файла : 1024 Мбайт
Продолжительность : 17 м.
Режим общего битрейта : Переменный
Общий поток : 8302 Кбит/сек
Видео
Идентификатор : 224 (0xE0)
Формат : MPEG Video
Версия формата : Version 2
Профиль формата : Main@Main
Параметр BVOP формата : Да
Параметр матрицы формата : Выборочная
Параметр GOP формата : M=3, N=15
Структура изображения : Frame
Продолжительность : 17 м.
Вид битрейта : Переменный
Битрейт : 7561 Кбит/сек
Максимальный битрейт : 9194 Кбит/сек
Ширина : 720 пикселей
Высота : 480 пикселей
Соотношение сторон : 4:3
Частота кадров : 29,970 (30000/1001) кадров/сек
Стандарт вещания : NTSC
Цветовое пространство : YUV
Субдискретизация насыщенности : 4:2:0
Битовая глубина : 8 бит
Тип развёртки : Чересстрочная
Порядок развёртки : Верхнее поле первое
Метод сжатия : С потерями
Бит/(Пиксели*Кадры) : 0.730
Временной код первого кадра : 01:16:52;15
Оригинал временного кода : Group of pictures header
GOP, открыто/закрыто : Открыто
Размер потока : 932 Мбайт (91%)
Аудио #1
Идентификатор : 189 (0xBD)-128 (0x80)
Формат : AC-3
Формат/Информация : Audio Coding 3
Расширение режима : CM (complete main)
Параметр Endianness формата : Big
Режим смешивания : DVD-Video
Продолжительность : 17 м.
Вид битрейта : Постоянный
Битрейт : 192 Кбит/сек
Каналы : 2 канала
Расположение каналов : Front: L R
Частота : 48,0 КГц
Частота кадров : 31,250 кадров/сек (1536 spf)
Метод сжатия : С потерями
Задержка видео : -532 мс.
Размер потока : 23,7 Мбайт (2%)
Аудио #2
Идентификатор : 189 (0xBD)-129 (0x81)
Формат : AC-3
Формат/Информация : Audio Coding 3
Расширение режима : CM (complete main)
Параметр Endianness формата : Big
Режим смешивания : DVD-Video
Продолжительность : 17 м.
Вид битрейта : Постоянный
Битрейт : 192 Кбит/сек
Каналы : 2 канала
Расположение каналов : Front: L R
Частота : 48,0 КГц
Частота кадров : 31,250 кадров/сек (1536 spf)
Метод сжатия : С потерями
Задержка видео : -532 мс.
Размер потока : 23,7 Мбайт (2%)
Аудио #3
Идентификатор : 189 (0xBD)-130 (0x82)
Формат : AC-3
Формат/Информация : Audio Coding 3
Расширение режима : CM (complete main)
Параметр Endianness формата : Big
Режим смешивания : DVD-Video
Продолжительность : 17 м.
Вид битрейта : Постоянный
Битрейт : 192 Кбит/сек
Каналы : 2 канала
Расположение каналов : Front: L R
Частота : 48,0 КГц
Частота кадров : 31,250 кадров/сек (1536 spf)
Метод сжатия : С потерями
Задержка видео : -532 мс.
Размер потока : 23,7 Мбайт (2%)
Текст
Идентификатор : 224 (0xE0)-CC3
Формат : EIA-608
Режим смешивания, доп. информация : Muxed in Video #1
Вид битрейта : Постоянный
Размер потока : 0,00 байт (0%)
Меню
Общее
Полное имя : C:\Users\Roman\Alien Nation Dark Horizon\VTS_01_3.VOB
Формат : MPEG-PS
Размер файла : 1024 Мбайт
Продолжительность : 17 м.
Режим общего битрейта : Переменный
Общий поток : 7983 Кбит/сек
Видео
Идентификатор : 224 (0xE0)
Формат : MPEG Video
Версия формата : Version 2
Профиль формата : Main@Main
Параметр BVOP формата : Да
Параметр матрицы формата : Выборочная
Параметр GOP формата : Variable
Продолжительность : 17 м.
Вид битрейта : Переменный
Битрейт : 7248 Кбит/сек
Максимальный битрейт : 9194 Кбит/сек
Ширина : 720 пикселей
Высота : 480 пикселей
Соотношение сторон : 4:3
Частота кадров : 29,970 (30000/1001) кадров/сек
Стандарт вещания : NTSC
Цветовое пространство : YUV
Субдискретизация насыщенности : 4:2:0
Битовая глубина : 8 бит
Метод сжатия : С потерями
Бит/(Пиксели*Кадры) : 0.700
Временной код первого кадра : 01:34:07;02
Оригинал временного кода : Group of pictures header
Размер потока : 929 Мбайт (91%)
Аудио #1
Идентификатор : 189 (0xBD)-128 (0x80)
Формат : AC-3
Формат/Информация : Audio Coding 3
Расширение режима : CM (complete main)
Параметр Endianness формата : Big
Режим смешивания : DVD-Video
Продолжительность : 17 м.
Вид битрейта : Постоянный
Битрейт : 192 Кбит/сек
Каналы : 2 канала
Расположение каналов : Front: L R
Частота : 48,0 КГц
Частота кадров : 31,250 кадров/сек (1536 spf)
Метод сжатия : С потерями
Задержка видео : -409 мс.
Размер потока : 24,6 Мбайт (2%)
Аудио #2
Идентификатор : 189 (0xBD)-129 (0x81)
Формат : AC-3
Формат/Информация : Audio Coding 3
Расширение режима : CM (complete main)
Параметр Endianness формата : Big
Режим смешивания : DVD-Video
Продолжительность : 17 м.
Вид битрейта : Постоянный
Битрейт : 192 Кбит/сек
Каналы : 2 канала
Расположение каналов : Front: L R
Частота : 48,0 КГц
Частота кадров : 31,250 кадров/сек (1536 spf)
Метод сжатия : С потерями
Задержка видео : -409 мс.
Размер потока : 24,6 Мбайт (2%)
Аудио #3
Идентификатор : 189 (0xBD)-130 (0x82)
Формат : AC-3
Формат/Информация : Audio Coding 3
Расширение режима : CM (complete main)
Параметр Endianness формата : Big
Режим смешивания : DVD-Video
Продолжительность : 17 м.
Вид битрейта : Постоянный
Битрейт : 192 Кбит/сек
Каналы : 2 канала
Расположение каналов : Front: L R
Частота : 48,0 КГц
Частота кадров : 31,250 кадров/сек (1536 spf)
Метод сжатия : С потерями
Задержка видео : -409 мс.
Размер потока : 24,6 Мбайт (2%)
Текст
Идентификатор : 224 (0xE0)-CC3
Формат : EIA-608
Режим смешивания, доп. информация : Muxed in Video #1
Вид битрейта : Постоянный
Размер потока : 0,00 байт (0%)
Меню
Общее
Полное имя : C:\Users\Roman\Alien Nation Dark Horizon\VTS_01_4.VOB
Формат : MPEG-PS
Размер файла : 1024 Мбайт
Продолжительность : 17 м.
Режим общего битрейта : Переменный
Общий поток : 8420 Кбит/сек
Видео
Идентификатор : 224 (0xE0)
Формат : MPEG Video
Версия формата : Version 2
Профиль формата : Main@Main
Параметр BVOP формата : Да
Параметр матрицы формата : Выборочная
Параметр GOP формата : Variable
Продолжительность : 16 м.
Вид битрейта : Переменный
Битрейт : 7676 Кбит/сек
Максимальный битрейт : 9194 Кбит/сек
Ширина : 720 пикселей
Высота : 480 пикселей
Соотношение сторон : 4:3
Частота кадров : 29,970 (30000/1001) кадров/сек
Стандарт вещания : NTSC
Цветовое пространство : YUV
Субдискретизация насыщенности : 4:2:0
Битовая глубина : 8 бит
Метод сжатия : С потерями
Бит/(Пиксели*Кадры) : 0.741
Временной код первого кадра : 01:52:03;06
Оригинал временного кода : Group of pictures header
Размер потока : 933 Мбайт (91%)
Аудио #1
Идентификатор : 189 (0xBD)-128 (0x80)
Формат : AC-3
Формат/Информация : Audio Coding 3
Расширение режима : CM (complete main)
Параметр Endianness формата : Big
Режим смешивания : DVD-Video
Продолжительность : 17 м.
Вид битрейта : Постоянный
Битрейт : 192 Кбит/сек
Каналы : 2 канала
Расположение каналов : Front: L R
Частота : 48,0 КГц
Частота кадров : 31,250 кадров/сек (1536 spf)
Метод сжатия : С потерями
Задержка видео : -519 мс.
Размер потока : 23,4 Мбайт (2%)
Аудио #2
Идентификатор : 189 (0xBD)-129 (0x81)
Формат : AC-3
Формат/Информация : Audio Coding 3
Расширение режима : CM (complete main)
Параметр Endianness формата : Big
Режим смешивания : DVD-Video
Продолжительность : 17 м.
Вид битрейта : Постоянный
Битрейт : 192 Кбит/сек
Каналы : 2 канала
Расположение каналов : Front: L R
Частота : 48,0 КГц
Частота кадров : 31,250 кадров/сек (1536 spf)
Метод сжатия : С потерями
Задержка видео : -519 мс.
Размер потока : 23,4 Мбайт (2%)
Аудио #3
Идентификатор : 189 (0xBD)-130 (0x82)
Формат : AC-3
Формат/Информация : Audio Coding 3
Расширение режима : CM (complete main)
Параметр Endianness формата : Big
Режим смешивания : DVD-Video
Продолжительность : 17 м.
Вид битрейта : Постоянный
Битрейт : 192 Кбит/сек
Каналы : 2 канала
Расположение каналов : Front: L R
Частота : 48,0 КГц
Частота кадров : 31,250 кадров/сек (1536 spf)
Метод сжатия : С потерями
Задержка видео : -519 мс.
Размер потока : 23,4 Мбайт (2%)
Текст
Идентификатор : 224 (0xE0)-CC3
Формат : EIA-608
Режим смешивания, доп. информация : Muxed in Video #1
Вид битрейта : Постоянный
Размер потока : 0,00 байт (0%)
Меню
Общее
Полное имя : C:\Users\Roman\Alien Nation Dark Horizon\VTS_01_5.VOB
Формат : MPEG-PS
Размер файла : 1024 Мбайт
Продолжительность : 18 м.
Режим общего битрейта : Переменный
Общий поток : 7939 Кбит/сек
Видео
Идентификатор : 224 (0xE0)
Формат : MPEG Video
Версия формата : Version 2
Профиль формата : Main@Main
Параметр BVOP формата : Да
Параметр матрицы формата : Выборочная
Параметр GOP формата : Variable
Продолжительность : 18 м.
Вид битрейта : Переменный
Битрейт : 7205 Кбит/сек
Максимальный битрейт : 9194 Кбит/сек
Ширина : 720 пикселей
Высота : 480 пикселей
Соотношение сторон : 4:3
Частота кадров : 29,970 (30000/1001) кадров/сек
Стандарт вещания : NTSC
Цветовое пространство : YUV
Субдискретизация насыщенности : 4:2:0
Битовая глубина : 8 бит
Метод сжатия : С потерями
Бит/(Пиксели*Кадры) : 0.696
Временной код первого кадра : 02:09:03;14
Оригинал временного кода : Group of pictures header
GOP, открыто/закрыто : Открыто
Размер потока : 929 Мбайт (91%)
Аудио #1
Идентификатор : 189 (0xBD)-128 (0x80)
Формат : AC-3
Формат/Информация : Audio Coding 3
Расширение режима : CM (complete main)
Параметр Endianness формата : Big
Режим смешивания : DVD-Video
Продолжительность : 18 м.
Вид битрейта : Постоянный
Битрейт : 192 Кбит/сек
Каналы : 2 канала
Расположение каналов : Front: L R
Частота : 48,0 КГц
Частота кадров : 31,250 кадров/сек (1536 spf)
Метод сжатия : С потерями
Задержка видео : -465 мс.
Размер потока : 24,8 Мбайт (2%)
Аудио #2
Идентификатор : 189 (0xBD)-129 (0x81)
Формат : AC-3
Формат/Информация : Audio Coding 3
Расширение режима : CM (complete main)
Параметр Endianness формата : Big
Режим смешивания : DVD-Video
Продолжительность : 18 м.
Вид битрейта : Постоянный
Битрейт : 192 Кбит/сек
Каналы : 2 канала
Расположение каналов : Front: L R
Частота : 48,0 КГц
Частота кадров : 31,250 кадров/сек (1536 spf)
Метод сжатия : С потерями
Задержка видео : -465 мс.
Размер потока : 24,8 Мбайт (2%)
Аудио #3
Идентификатор : 189 (0xBD)-130 (0x82)
Формат : AC-3
Формат/Информация : Audio Coding 3
Расширение режима : CM (complete main)
Параметр Endianness формата : Big
Режим смешивания : DVD-Video
Продолжительность : 18 м.
Вид битрейта : Постоянный
Битрейт : 192 Кбит/сек
Каналы : 2 канала
Расположение каналов : Front: L R
Частота : 48,0 КГц
Частота кадров : 31,250 кадров/сек (1536 spf)
Метод сжатия : С потерями
Задержка видео : -465 мс.
Размер потока : 24,8 Мбайт (2%)
Текст
Идентификатор : 224 (0xE0)-CC3
Формат : EIA-608
Режим смешивания, доп. информация : Muxed in Video #1
Вид битрейта : Постоянный
Размер потока : 0,00 байт (0%)
Меню
Общее
Полное имя : C:\Users\Roman\Alien Nation Dark Horizon\VTS_01_6.VOB
Формат : MPEG-PS
Размер файла : 389 Мбайт
Продолжительность : 5 м. 52 с.
Режим общего битрейта : Переменный
Общий поток : 9261 Кбит/сек
Видео
Идентификатор : 224 (0xE0)
Формат : MPEG Video
Версия формата : Version 2
Профиль формата : Main@Main
Параметр BVOP формата : Да
Параметр матрицы формата : Выборочная
Параметр GOP формата : M=3, N=15
Структура изображения : Frame
Продолжительность : 5 м. 51 с.
Вид битрейта : Переменный
Битрейт : 8501 Кбит/сек
Максимальный битрейт : 9194 Кбит/сек
Ширина : 720 пикселей
Высота : 480 пикселей
Соотношение сторон : 4:3
Частота кадров : 29,970 (30000/1001) кадров/сек
Стандарт вещания : NTSC
Цветовое пространство : YUV
Субдискретизация насыщенности : 4:2:0
Битовая глубина : 8 бит
Тип развёртки : Чересстрочная
Порядок развёртки : Верхнее поле первое
Метод сжатия : С потерями
Бит/(Пиксели*Кадры) : 0.821
Временной код первого кадра : 02:27:05;11
Оригинал временного кода : Group of pictures header
GOP, открыто/закрыто : Открыто
Размер потока : 356 Мбайт (92%)
Аудио #1
Идентификатор : 189 (0xBD)-128 (0x80)
Формат : AC-3
Формат/Информация : Audio Coding 3
Расширение режима : CM (complete main)
Параметр Endianness формата : Big
Режим смешивания : DVD-Video
Продолжительность : 5 м. 52 с.
Вид битрейта : Постоянный
Битрейт : 192 Кбит/сек
Каналы : 2 канала
Расположение каналов : Front: L R
Частота : 48,0 КГц
Частота кадров : 31,250 кадров/сек (1536 spf)
Метод сжатия : С потерями
Задержка видео : -381 мс.
Размер потока : 8,06 Мбайт (2%)
Аудио #2
Идентификатор : 189 (0xBD)-129 (0x81)
Формат : AC-3
Формат/Информация : Audio Coding 3
Расширение режима : CM (complete main)
Параметр Endianness формата : Big
Режим смешивания : DVD-Video
Продолжительность : 5 м. 52 с.
Вид битрейта : Постоянный
Битрейт : 192 Кбит/сек
Каналы : 2 канала
Расположение каналов : Front: L R
Частота : 48,0 КГц
Частота кадров : 31,250 кадров/сек (1536 spf)
Метод сжатия : С потерями
Задержка видео : -381 мс.
Размер потока : 8,06 Мбайт (2%)
Аудио #3
Идентификатор : 189 (0xBD)-130 (0x82)
Формат : AC-3
Формат/Информация : Audio Coding 3
Расширение режима : CM (complete main)
Параметр Endianness формата : Big
Режим смешивания : DVD-Video
Продолжительность : 5 м. 52 с.
Вид битрейта : Постоянный
Битрейт : 192 Кбит/сек
Каналы : 2 канала
Расположение каналов : Front: L R
Частота : 48,0 КГц
Частота кадров : 31,250 кадров/сек (1536 spf)
Метод сжатия : С потерями
Задержка видео : -381 мс.
Размер потока : 8,06 Мбайт (2%)
Текст
Идентификатор : 224 (0xE0)-CC3
Формат : EIA-608
Режим смешивания, доп. информация : Muxed in Video #1
Вид битрейта : Постоянный
Размер потока : 0,00 байт (0%)
Меню
Общее
Полное имя : C:\Users\Roman\Alien Nation Dark Horizon\VTS_02_0.BUP
Формат : DVD Video
Профиль формата : Program
Размер файла : 14,0 Кбайт
Продолжительность : 15 с.
Режим общего битрейта : Переменный
Общий поток : 7646 бит/сек
Видео
Идентификатор : 224 (0xE0)
Формат : MPEG Video
Версия формата : Version 2
Продолжительность : 15 с.
Вид битрейта : Переменный
Ширина : 720 пикселей
Высота : 480 пикселей
Соотношение сторон : 4:3
Частота кадров : 29,970 (29970/1000) кадров/сек
Стандарт вещания : NTSC
Метод сжатия : С потерями
Аудио
Идентификатор : 128 (0x80)
Формат : AC-3
Формат/Информация : Audio Coding 3
Продолжительность : 15 с.
Каналы : 2 канала
Частота : 48,0 КГц
Метод сжатия : С потерями
Язык : English
Меню #1
Продолжительность : 15 с.
00:00:00.000 : Chapter 1
00:00:07.000 : Chapter 2
00:00:14.000 : Chapter 3
List (Audio) : 0
Меню #2
Продолжительность : 1 с. 600 мс.
00:00:00.000 : Chapter 1
00:00:00.400 : Chapter 2
00:00:00.800 : Chapter 3
00:00:01.200 : Chapter 4
List (Audio) : 0
Меню #3
Продолжительность : 15 с.
00:00:00.000 : Chapter 1
00:00:07.000 : Chapter 2
00:00:14.000 : Chapter 3
List (Audio) : 0
Общее
Полное имя : C:\Users\Roman\Alien Nation Dark Horizon\VTS_02_0.IFO
Формат : DVD Video
Профиль формата : Program
Размер файла : 14,0 Кбайт
Продолжительность : 15 с.
Режим общего битрейта : Переменный
Общий поток : 7646 бит/сек
Видео
Идентификатор : 224 (0xE0)
Формат : MPEG Video
Версия формата : Version 2
Продолжительность : 15 с.
Вид битрейта : Переменный
Ширина : 720 пикселей
Высота : 480 пикселей
Соотношение сторон : 4:3
Частота кадров : 29,970 (29970/1000) кадров/сек
Стандарт вещания : NTSC
Метод сжатия : С потерями
Аудио
Идентификатор : 128 (0x80)
Формат : AC-3
Формат/Информация : Audio Coding 3
Продолжительность : 15 с.
Каналы : 2 канала
Частота : 48,0 КГц
Метод сжатия : С потерями
Язык : English
Меню #1
Продолжительность : 15 с.
00:00:00.000 : Chapter 1
00:00:07.000 : Chapter 2
00:00:14.000 : Chapter 3
List (Audio) : 0
Меню #2
Продолжительность : 1 с. 600 мс.
00:00:00.000 : Chapter 1
00:00:00.400 : Chapter 2
00:00:00.800 : Chapter 3
00:00:01.200 : Chapter 4
List (Audio) : 0
Меню #3
Продолжительность : 15 с.
00:00:00.000 : Chapter 1
00:00:07.000 : Chapter 2
00:00:14.000 : Chapter 3
List (Audio) : 0
Общее
Полное имя : C:\Users\Roman\Alien Nation Dark Horizon\VTS_02_1.VOB
Формат : MPEG-PS
Размер файла : 614 Кбайт
Продолжительность : 992 мс.
Общий поток : 5070 Кбит/сек
Библиотека кодирования : encoded by TMPGEnc (ver. 2.524.63.181)
Видео
Идентификатор : 224 (0xE0)
Формат : MPEG Video
Версия формата : Version 2
Профиль формата : Main@Main
Параметр BVOP формата : Нет
Параметр матрицы формата : Выборочная
Продолжительность : 400 мс.
Ширина : 720 пикселей
Высота : 480 пикселей
Соотношение сторон : 4:3
Частота кадров : 29,970 (30000/1001) кадров/сек
Стандарт вещания : NTSC
Цветовое пространство : YUV
Субдискретизация насыщенности : 4:2:0
Битовая глубина : 8 бит
Тип развёртки : Прогрессивная
Метод сжатия : С потерями
Библиотека кодирования : TMPGEnc 2.524.63.181
Основные цвета : BT.601 NTSC
Характеристики трансфера : BT.601
Коэффициенты матрицы : BT.601
Аудио
Идентификатор : 189 (0xBD)-128 (0x80)
Формат : AC-3
Формат/Информация : Audio Coding 3
Расширение режима : CM (complete main)
Параметр Endianness формата : Big
Режим смешивания : DVD-Video
Продолжительность : 992 мс.
Вид битрейта : Постоянный
Битрейт : 192 Кбит/сек
Каналы : 2 канала
Расположение каналов : Front: L R
Частота : 48,0 КГц
Частота кадров : 31,250 кадров/сек (1536 spf)
Метод сжатия : С потерями
Задержка видео : 49 мс.
Размер потока : 23,3 Кбайт (4%)
Меню
Общее
Полное имя : C:\Users\Roman\Alien Nation Dark Horizon\VTS_03_0.BUP
Формат : DVD Video
Профиль формата : Program
Размер файла : 16,0 Кбайт
Продолжительность : 8 м. 7 с.
Режим общего битрейта : Переменный
Общий поток : 269 бит/сек
Видео
Идентификатор : 224 (0xE0)
Формат : MPEG Video
Версия формата : Version 2
Продолжительность : 8 м. 7 с.
Вид битрейта : Переменный
Ширина : 720 пикселей
Высота : 480 пикселей
Соотношение сторон : 4:3
Частота кадров : 29,970 (29970/1000) кадров/сек
Стандарт вещания : NTSC
Метод сжатия : С потерями
Аудио
Идентификатор : 128 (0x80)
Формат : AC-3
Формат/Информация : Audio Coding 3
Продолжительность : 8 м. 7 с.
Каналы : 2 канала
Частота : 48,0 КГц
Метод сжатия : С потерями
Язык : English
Меню
Продолжительность : 8 м. 7 с.
00:00:00.000 : Chapter 1
00:08:07.433 : Chapter 2
List (Audio) : 0
Общее
Полное имя : C:\Users\Roman\Alien Nation Dark Horizon\VTS_03_0.IFO
Формат : DVD Video
Профиль формата : Program
Размер файла : 16,0 Кбайт
Продолжительность : 8 м. 7 с.
Режим общего битрейта : Переменный
Общий поток : 269 бит/сек
Видео
Идентификатор : 224 (0xE0)
Формат : MPEG Video
Версия формата : Version 2
Продолжительность : 8 м. 7 с.
Вид битрейта : Переменный
Ширина : 720 пикселей
Высота : 480 пикселей
Соотношение сторон : 4:3
Частота кадров : 29,970 (29970/1000) кадров/сек
Стандарт вещания : NTSC
Метод сжатия : С потерями
Аудио
Идентификатор : 128 (0x80)
Формат : AC-3
Формат/Информация : Audio Coding 3
Продолжительность : 8 м. 7 с.
Каналы : 2 канала
Частота : 48,0 КГц
Метод сжатия : С потерями
Язык : English
Меню
Продолжительность : 8 м. 7 с.
00:00:00.000 : Chapter 1
00:08:07.433 : Chapter 2
List (Audio) : 0
Общее
Полное имя : C:\Users\Roman\Alien Nation Dark Horizon\VTS_03_1.VOB
Формат : MPEG-PS
Размер файла : 307 Мбайт
Продолжительность : 8 м. 8 с.
Режим общего битрейта : Переменный
Общий поток : 5273 Кбит/сек
Видео
Идентификатор : 224 (0xE0)
Формат : MPEG Video
Версия формата : Version 2
Профиль формата : Main@Main
Параметр BVOP формата : Да
Параметр матрицы формата : Выборочная
Параметр GOP формата : M=3, N=15
Структура изображения : Frame
Продолжительность : 8 м. 8 с.
Вид битрейта : Переменный
Битрейт : 4976 Кбит/сек
Максимальный битрейт : 9300 Кбит/сек
Ширина : 720 пикселей
Высота : 480 пикселей
Соотношение сторон : 4:3
Частота кадров : 29,970 (30000/1001) кадров/сек
Стандарт вещания : NTSC
Цветовое пространство : YUV
Субдискретизация насыщенности : 4:2:0
Битовая глубина : 8 бит
Тип развёртки : Чересстрочная
Порядок развёртки : Верхнее поле первое
Метод сжатия : С потерями
Бит/(Пиксели*Кадры) : 0.480
Временной код первого кадра : 00:00:43:25
Оригинал временного кода : Group of pictures header
GOP, открыто/закрыто : Открыто
GOP, открыто/закрыто на первом кадре : Закрыто
Размер потока : 290 Мбайт (94%)
Аудио
Идентификатор : 189 (0xBD)-128 (0x80)
Формат : AC-3
Формат/Информация : Audio Coding 3
Расширение режима : CM (complete main)
Параметр Endianness формата : Big
Режим смешивания : DVD-Video
Продолжительность : 8 м. 8 с.
Вид битрейта : Постоянный
Битрейт : 192 Кбит/сек
Каналы : 2 канала
Расположение каналов : Front: L R
Частота : 48,0 КГц
Частота кадров : 31,250 кадров/сек (1536 spf)
Метод сжатия : С потерями
Размер потока : 11,2 Мбайт (4%)
Меню
Общее
Полное имя : C:\Users\Roman\Alien Nation Dark Horizon\VTS_04_0.BUP
Формат : DVD Video
Профиль формата : Program
Размер файла : 14,0 Кбайт
Продолжительность : 15 с.
Режим общего битрейта : Переменный
Общий поток : 7646 бит/сек
Видео
Идентификатор : 224 (0xE0)
Формат : MPEG Video
Версия формата : Version 2
Продолжительность : 15 с.
Вид битрейта : Переменный
Ширина : 720 пикселей
Высота : 480 пикселей
Соотношение сторон : 4:3
Частота кадров : 29,970 (29970/1000) кадров/сек
Стандарт вещания : NTSC
Метод сжатия : С потерями
Аудио #1
Идентификатор : 128 (0x80)
Формат : AC-3
Формат/Информация : Audio Coding 3
Продолжительность : 15 с.
Каналы : 2 канала
Частота : 48,0 КГц
Метод сжатия : С потерями
Язык : English
Аудио #2
Идентификатор : 129 (0x81)
Формат : AC-3
Формат/Информация : Audio Coding 3
Продолжительность : 15 с.
Каналы : 2 канала
Частота : 48,0 КГц
Метод сжатия : С потерями
Язык : Spanish
Аудио #3
Идентификатор : 130 (0x82)
Формат : AC-3
Формат/Информация : Audio Coding 3
Продолжительность : 15 с.
Каналы : 2 канала
Частота : 48,0 КГц
Метод сжатия : С потерями
Язык : English
Текст #1
Идентификатор : 32 (0x20)
Формат : RLE
Формат/Информация : Run-length encoding
Битовая глубина : 2 бит
Язык : English
Текст #2
Идентификатор : 32 (0x20)
Формат : RLE
Формат/Информация : Run-length encoding
Битовая глубина : 2 бит
Язык : Spanish
Язык, дополнительно : Normal
Текст #3
Идентификатор : 32 (0x20)
Формат : RLE
Формат/Информация : Run-length encoding
Битовая глубина : 2 бит
Язык : Spanish
Меню #1
Продолжительность : 15 с.
00:00:00.000 : Chapter 1
00:00:08.000 : Chapter 2
List (Audio) : 0 / 1 / 2
List (Subtitles 4/3) : 0 / 1 / 2
List (Subtitles Wide) : 0 / 0 / 0
List (Subtitles Letterbox) : 0 / 0 / 0
List (Subtitles Pan&Scan) : 0 / 0 / 0
Меню #2
Продолжительность : 15 с.
00:00:00.000 : Chapter 1
00:00:08.000 : Chapter 2
List (Audio) : 0 / 1 / 2
List (Subtitles 4/3) : 0 / 1 / 2
List (Subtitles Wide) : 0 / 0 / 0
List (Subtitles Letterbox) : 0 / 0 / 0
List (Subtitles Pan&Scan) : 0 / 0 / 0
Общее
Полное имя : C:\Users\Roman\Alien Nation Dark Horizon\VTS_04_0.IFO
Формат : DVD Video
Профиль формата : Program
Размер файла : 14,0 Кбайт
Продолжительность : 15 с.
Режим общего битрейта : Переменный
Общий поток : 7646 бит/сек
Видео
Идентификатор : 224 (0xE0)
Формат : MPEG Video
Версия формата : Version 2
Продолжительность : 15 с.
Вид битрейта : Переменный
Ширина : 720 пикселей
Высота : 480 пикселей
Соотношение сторон : 4:3
Частота кадров : 29,970 (29970/1000) кадров/сек
Стандарт вещания : NTSC
Метод сжатия : С потерями
Аудио #1
Идентификатор : 128 (0x80)
Формат : AC-3
Формат/Информация : Audio Coding 3
Продолжительность : 15 с.
Каналы : 2 канала
Частота : 48,0 КГц
Метод сжатия : С потерями
Язык : English
Аудио #2
Идентификатор : 129 (0x81)
Формат : AC-3
Формат/Информация : Audio Coding 3
Продолжительность : 15 с.
Каналы : 2 канала
Частота : 48,0 КГц
Метод сжатия : С потерями
Язык : Spanish
Аудио #3
Идентификатор : 130 (0x82)
Формат : AC-3
Формат/Информация : Audio Coding 3
Продолжительность : 15 с.
Каналы : 2 канала
Частота : 48,0 КГц
Метод сжатия : С потерями
Язык : English
Текст #1
Идентификатор : 32 (0x20)
Формат : RLE
Формат/Информация : Run-length encoding
Битовая глубина : 2 бит
Язык : English
Текст #2
Идентификатор : 32 (0x20)
Формат : RLE
Формат/Информация : Run-length encoding
Битовая глубина : 2 бит
Язык : Spanish
Язык, дополнительно : Normal
Текст #3
Идентификатор : 32 (0x20)
Формат : RLE
Формат/Информация : Run-length encoding
Битовая глубина : 2 бит
Язык : Spanish
Меню #1
Продолжительность : 15 с.
00:00:00.000 : Chapter 1
00:00:08.000 : Chapter 2
List (Audio) : 0 / 1 / 2
List (Subtitles 4/3) : 0 / 1 / 2
List (Subtitles Wide) : 0 / 0 / 0
List (Subtitles Letterbox) : 0 / 0 / 0
List (Subtitles Pan&Scan) : 0 / 0 / 0
Меню #2
Продолжительность : 15 с.
00:00:00.000 : Chapter 1
00:00:08.000 : Chapter 2
List (Audio) : 0 / 1 / 2
List (Subtitles 4/3) : 0 / 1 / 2
List (Subtitles Wide) : 0 / 0 / 0
List (Subtitles Letterbox) : 0 / 0 / 0
List (Subtitles Pan&Scan) : 0 / 0 / 0
Общее
Полное имя : C:\Users\Roman\Alien Nation Dark Horizon\VTS_04_1.VOB
Формат : MPEG-PS
Размер файла : 7,26 Мбайт
Продолжительность : 7 с. 25 мс.
Режим общего битрейта : Переменный
Общий поток : 8667 Кбит/сек
Видео
Идентификатор : 224 (0xE0)
Формат : MPEG Video
Версия формата : Version 2
Профиль формата : Main@Main
Параметр BVOP формата : Да
Параметр матрицы формата : Выборочная
Параметр GOP формата : M=3, N=15
Структура изображения : Frame
Продолжительность : 83 мс.
Вид битрейта : Переменный
Битрейт : 7918 Кбит/сек
Максимальный битрейт : 9608 Кбит/сек
Ширина : 720 пикселей
Высота : 480 пикселей
Соотношение сторон : 4:3
Частота кадров : 29,970 (30000/1001) кадров/сек
Стандарт вещания : NTSC
Цветовое пространство : YUV
Субдискретизация насыщенности : 4:2:0
Битовая глубина : 8 бит
Тип развёртки : Чересстрочная
Порядок развёртки : Верхнее поле первое
Метод сжатия : С потерями
Бит/(Пиксели*Кадры) : 0.764
Временной код первого кадра : 00:59:59;00
Оригинал временного кода : Group of pictures header
GOP, открыто/закрыто : Открыто
GOP, открыто/закрыто на первом кадре : Закрыто
Размер потока : 64,5 Кбайт (1%)
Аудио #1
Идентификатор : 189 (0xBD)-128 (0x80)
Формат : AC-3
Формат/Информация : Audio Coding 3
Расширение режима : CM (complete main)
Параметр Endianness формата : Big
Режим смешивания : DVD-Video
Продолжительность : 7 с. 25 мс.
Вид битрейта : Постоянный
Битрейт : 192 Кбит/сек
Каналы : 2 канала
Расположение каналов : Front: L R
Частота : 48,0 КГц
Частота кадров : 31,250 кадров/сек (1536 spf)
Метод сжатия : С потерями
Размер потока : 165 Кбайт (2%)
Аудио #2
Идентификатор : 189 (0xBD)-129 (0x81)
Формат : AC-3
Формат/Информация : Audio Coding 3
Расширение режима : CM (complete main)
Параметр Endianness формата : Big
Режим смешивания : DVD-Video
Продолжительность : 7 с. 25 мс.
Вид битрейта : Постоянный
Битрейт : 192 Кбит/сек
Каналы : 2 канала
Расположение каналов : Front: L R
Частота : 48,0 КГц
Частота кадров : 31,250 кадров/сек (1536 spf)
Метод сжатия : С потерями
Размер потока : 165 Кбайт (2%)
Аудио #3
Идентификатор : 189 (0xBD)-130 (0x82)
Формат : AC-3
Формат/Информация : Audio Coding 3
Расширение режима : CM (complete main)
Параметр Endianness формата : Big
Режим смешивания : DVD-Video
Продолжительность : 7 с. 25 мс.
Вид битрейта : Постоянный
Битрейт : 192 Кбит/сек
Каналы : 2 канала
Расположение каналов : Front: L R
Частота : 48,0 КГц
Частота кадров : 31,250 кадров/сек (1536 spf)
Метод сжатия : С потерями
Размер потока : 165 Кбайт (2%)
Текст #1
Идентификатор : 189 (0xBD)-32 (0x20)
Формат : RLE
Формат/Информация : Run-length encoding
Режим смешивания : DVD-Video
Задержка видео : 4 с. 170 мс.
Текст #2
Идентификатор : 189 (0xBD)-33 (0x21)
Формат : RLE
Формат/Информация : Run-length encoding
Режим смешивания : DVD-Video
Задержка видео : 4 с. 37 мс.
Текст #3
Идентификатор : 189 (0xBD)-34 (0x22)
Формат : RLE
Формат/Информация : Run-length encoding
Режим смешивания : DVD-Video
Задержка видео : 5 с. 5 мс.
Меню
Общее
Полное имя : C:\Users\Roman\Alien Nation Dark Horizon\VTS_05_0.BUP
Формат : DVD Video
Профиль формата : Program
Размер файла : 28,0 Кбайт
Продолжительность : 22 м.
Режим общего битрейта : Переменный
Общий поток : 171 бит/сек
Видео
Идентификатор : 224 (0xE0)
Формат : MPEG Video
Версия формата : Version 2
Продолжительность : 22 м.
Вид битрейта : Переменный
Ширина : 720 пикселей
Высота : 480 пикселей
Соотношение сторон : 4:3
Частота кадров : 29,970 (29970/1000) кадров/сек
Стандарт вещания : NTSC
Метод сжатия : С потерями
Аудио
Идентификатор : 128 (0x80)
Формат : AC-3
Формат/Информация : Audio Coding 3
Продолжительность : 22 м.
Каналы : 2 канала
Частота : 48,0 КГц
Метод сжатия : С потерями
Язык : English
Меню
Продолжительность : 22 м.
00:00:00.000 : Chapter 1
00:22:21.000 : Chapter 2
List (Audio) : 0
Общее
Полное имя : C:\Users\Roman\Alien Nation Dark Horizon\VTS_05_0.IFO
Формат : DVD Video
Профиль формата : Program
Размер файла : 28,0 Кбайт
Продолжительность : 22 м.
Режим общего битрейта : Переменный
Общий поток : 171 бит/сек
Видео
Идентификатор : 224 (0xE0)
Формат : MPEG Video
Версия формата : Version 2
Продолжительность : 22 м.
Вид битрейта : Переменный
Ширина : 720 пикселей
Высота : 480 пикселей
Соотношение сторон : 4:3
Частота кадров : 29,970 (29970/1000) кадров/сек
Стандарт вещания : NTSC
Метод сжатия : С потерями
Аудио
Идентификатор : 128 (0x80)
Формат : AC-3
Формат/Информация : Audio Coding 3
Продолжительность : 22 м.
Каналы : 2 канала
Частота : 48,0 КГц
Метод сжатия : С потерями
Язык : English
Меню
Продолжительность : 22 м.
00:00:00.000 : Chapter 1
00:22:21.000 : Chapter 2
List (Audio) : 0
Общее
Полное имя : C:\Users\Roman\Alien Nation Dark Horizon\VTS_05_1.VOB
Формат : MPEG-PS
Размер файла : 951 Мбайт
Продолжительность : 22 м.
Режим общего битрейта : Переменный
Общий поток : 5939 Кбит/сек
Видео
Идентификатор : 224 (0xE0)
Формат : MPEG Video
Версия формата : Version 2
Профиль формата : Main@Main
Параметр BVOP формата : Да
Параметр матрицы формата : Выборочная
Параметр GOP формата : M=3, N=15
Структура изображения : Frame
Продолжительность : 22 м.
Вид битрейта : Переменный
Битрейт : 5629 Кбит/сек
Максимальный битрейт : 9200 Кбит/сек
Ширина : 720 пикселей
Высота : 480 пикселей
Соотношение сторон : 4:3
Частота кадров : 29,970 (30000/1001) кадров/сек
Стандарт вещания : NTSC
Цветовое пространство : YUV
Субдискретизация насыщенности : 4:2:0
Битовая глубина : 8 бит
Тип развёртки : Чересстрочная
Порядок развёртки : Верхнее поле первое
Метод сжатия : С потерями
Бит/(Пиксели*Кадры) : 0.543
Временной код первого кадра : 00:09:04:11
Оригинал временного кода : Group of pictures header
GOP, открыто/закрыто : Открыто
GOP, открыто/закрыто на первом кадре : Закрыто
Размер потока : 901 Мбайт (95%)
Аудио
Идентификатор : 189 (0xBD)-128 (0x80)
Формат : AC-3
Формат/Информация : Audio Coding 3
Расширение режима : CM (complete main)
Параметр Endianness формата : Big
Режим смешивания : DVD-Video
Продолжительность : 22 м.
Вид битрейта : Постоянный
Битрейт : 192 Кбит/сек
Каналы : 2 канала
Расположение каналов : Front: L R
Частота : 48,0 КГц
Частота кадров : 31,250 кадров/сек (1536 spf)
Метод сжатия : С потерями
Размер потока : 30,7 Мбайт (3%)
Меню
Общее
Полное имя : C:\Users\Roman\Alien Nation Dark Horizon\VTS_06_0.BUP
Формат : DVD Video
Профиль формата : Program
Размер файла : 16,0 Кбайт
Продолжительность : 34 с.
Режим общего битрейта : Переменный
Общий поток : 3855 бит/сек
Видео
Идентификатор : 224 (0xE0)
Формат : MPEG Video
Версия формата : Version 2
Продолжительность : 34 с.
Вид битрейта : Переменный
Ширина : 720 пикселей
Высота : 480 пикселей
Соотношение сторон : 4:3
Частота кадров : 29,970 (29970/1000) кадров/сек
Стандарт вещания : NTSC
Метод сжатия : С потерями
Аудио
Идентификатор : 128 (0x80)
Формат : AC-3
Формат/Информация : Audio Coding 3
Продолжительность : 34 с.
Каналы : 2 канала
Частота : 48,0 КГц
Метод сжатия : С потерями
Язык : English
Текст
Идентификатор : 32 (0x20)
Формат : RLE
Формат/Информация : Run-length encoding
Битовая глубина : 2 бит
Меню
Продолжительность : 34 с.
00:00:00.000 : Chapter 1
00:00:00.500 : Chapter 2
00:00:01.000 : Chapter 3
00:00:01.500 : Chapter 4
00:00:02.000 : Chapter 5
00:00:02.500 : Chapter 6
00:00:03.000 : Chapter 7
00:00:03.500 : Chapter 8
00:00:04.000 : Chapter 9
00:00:04.500 : Chapter 10
00:00:05.000 : Chapter 11
00:00:05.500 : Chapter 12
00:00:06.000 : Chapter 13
00:00:06.500 : Chapter 14
00:00:07.000 : Chapter 15
00:00:07.500 : Chapter 16
00:00:08.000 : Chapter 17
00:00:08.500 : Chapter 18
00:00:09.000 : Chapter 19
00:00:09.500 : Chapter 20
00:00:10.000 : Chapter 21
00:00:10.500 : Chapter 22
00:00:11.000 : Chapter 23
00:00:11.500 : Chapter 24
00:00:12.000 : Chapter 25
00:00:12.500 : Chapter 26
00:00:13.000 : Chapter 27
00:00:13.500 : Chapter 28
00:00:14.000 : Chapter 29
00:00:14.500 : Chapter 30
00:00:15.000 : Chapter 31
00:00:15.500 : Chapter 32
00:00:16.000 : Chapter 33
00:00:16.500 : Chapter 34
00:00:17.000 : Chapter 35
00:00:17.500 : Chapter 36
00:00:18.000 : Chapter 37
00:00:18.500 : Chapter 38
00:00:19.000 : Chapter 39
00:00:19.500 : Chapter 40
00:00:20.000 : Chapter 41
00:00:20.500 : Chapter 42
00:00:21.000 : Chapter 43
00:00:21.500 : Chapter 44
00:00:22.000 : Chapter 45
00:00:22.500 : Chapter 46
00:00:23.000 : Chapter 47
00:00:23.500 : Chapter 48
00:00:24.000 : Chapter 49
00:00:24.500 : Chapter 50
00:00:25.000 : Chapter 51
00:00:25.500 : Chapter 52
00:00:26.000 : Chapter 53
00:00:26.500 : Chapter 54
00:00:27.000 : Chapter 55
00:00:27.500 : Chapter 56
00:00:28.000 : Chapter 57
00:00:28.500 : Chapter 58
00:00:29.000 : Chapter 59
00:00:29.500 : Chapter 60
00:00:30.000 : Chapter 61
00:00:30.500 : Chapter 62
00:00:31.000 : Chapter 63
00:00:31.500 : Chapter 64
00:00:32.000 : Chapter 65
00:00:32.500 : Chapter 66
00:00:33.000 : Chapter 67
00:00:33.500 : Chapter 68
List (Audio) : 0
List (Subtitles 4/3) : 0
List (Subtitles Wide) : 0
List (Subtitles Letterbox) : 0
List (Subtitles Pan&Scan) : 0
Общее
Полное имя : C:\Users\Roman\Alien Nation Dark Horizon\VTS_06_0.IFO
Формат : DVD Video
Профиль формата : Program
Размер файла : 16,0 Кбайт
Продолжительность : 34 с.
Режим общего битрейта : Переменный
Общий поток : 3855 бит/сек
Видео
Идентификатор : 224 (0xE0)
Формат : MPEG Video
Версия формата : Version 2
Продолжительность : 34 с.
Вид битрейта : Переменный
Ширина : 720 пикселей
Высота : 480 пикселей
Соотношение сторон : 4:3
Частота кадров : 29,970 (29970/1000) кадров/сек
Стандарт вещания : NTSC
Метод сжатия : С потерями
Аудио
Идентификатор : 128 (0x80)
Формат : AC-3
Формат/Информация : Audio Coding 3
Продолжительность : 34 с.
Каналы : 2 канала
Частота : 48,0 КГц
Метод сжатия : С потерями
Язык : English
Текст
Идентификатор : 32 (0x20)
Формат : RLE
Формат/Информация : Run-length encoding
Битовая глубина : 2 бит
Меню
Продолжительность : 34 с.
00:00:00.000 : Chapter 1
00:00:00.500 : Chapter 2
00:00:01.000 : Chapter 3
00:00:01.500 : Chapter 4
00:00:02.000 : Chapter 5
00:00:02.500 : Chapter 6
00:00:03.000 : Chapter 7
00:00:03.500 : Chapter 8
00:00:04.000 : Chapter 9
00:00:04.500 : Chapter 10
00:00:05.000 : Chapter 11
00:00:05.500 : Chapter 12
00:00:06.000 : Chapter 13
00:00:06.500 : Chapter 14
00:00:07.000 : Chapter 15
00:00:07.500 : Chapter 16
00:00:08.000 : Chapter 17
00:00:08.500 : Chapter 18
00:00:09.000 : Chapter 19
00:00:09.500 : Chapter 20
00:00:10.000 : Chapter 21
00:00:10.500 : Chapter 22
00:00:11.000 : Chapter 23
00:00:11.500 : Chapter 24
00:00:12.000 : Chapter 25
00:00:12.500 : Chapter 26
00:00:13.000 : Chapter 27
00:00:13.500 : Chapter 28
00:00:14.000 : Chapter 29
00:00:14.500 : Chapter 30
00:00:15.000 : Chapter 31
00:00:15.500 : Chapter 32
00:00:16.000 : Chapter 33
00:00:16.500 : Chapter 34
00:00:17.000 : Chapter 35
00:00:17.500 : Chapter 36
00:00:18.000 : Chapter 37
00:00:18.500 : Chapter 38
00:00:19.000 : Chapter 39
00:00:19.500 : Chapter 40
00:00:20.000 : Chapter 41
00:00:20.500 : Chapter 42
00:00:21.000 : Chapter 43
00:00:21.500 : Chapter 44
00:00:22.000 : Chapter 45
00:00:22.500 : Chapter 46
00:00:23.000 : Chapter 47
00:00:23.500 : Chapter 48
00:00:24.000 : Chapter 49
00:00:24.500 : Chapter 50
00:00:25.000 : Chapter 51
00:00:25.500 : Chapter 52
00:00:26.000 : Chapter 53
00:00:26.500 : Chapter 54
00:00:27.000 : Chapter 55
00:00:27.500 : Chapter 56
00:00:28.000 : Chapter 57
00:00:28.500 : Chapter 58
00:00:29.000 : Chapter 59
00:00:29.500 : Chapter 60
00:00:30.000 : Chapter 61
00:00:30.500 : Chapter 62
00:00:31.000 : Chapter 63
00:00:31.500 : Chapter 64
00:00:32.000 : Chapter 65
00:00:32.500 : Chapter 66
00:00:33.000 : Chapter 67
00:00:33.500 : Chapter 68
List (Audio) : 0
List (Subtitles 4/3) : 0
List (Subtitles Wide) : 0
List (Subtitles Letterbox) : 0
List (Subtitles Pan&Scan) : 0
Общее
Полное имя : C:\Users\Roman\Alien Nation Dark Horizon\VTS_06_1.VOB
Формат : MPEG-PS
Размер файла : 4,97 Мбайт
Продолжительность : 480 мс.
Общий поток : 86,9 Мбит/сек
Видео
Идентификатор : 224 (0xE0)
Формат : MPEG Video
Версия формата : Version 2
Профиль формата : Main@Main
Параметр BVOP формата : Нет
Параметр матрицы формата : Выборочная
Параметр GOP формата : N=1
Продолжительность : 83 мс.
Максимальный битрейт : 8000 Кбит/сек
Ширина : 720 пикселей
Высота : 480 пикселей
Соотношение сторон : 4:3
Частота кадров : 29,970 (30000/1001) кадров/сек
Стандарт вещания : NTSC
Цветовое пространство : YUV
Субдискретизация насыщенности : 4:2:0
Битовая глубина : 8 бит
Тип развёртки : Прогрессивная
Порядок развёртки : Верхнее поле первое
Метод сжатия : С потерями
Аудио
Идентификатор : 189 (0xBD)-128 (0x80)
Формат : AC-3
Формат/Информация : Audio Coding 3
Расширение режима : CM (complete main)
Параметр Endianness формата : Big
Режим смешивания : DVD-Video
Продолжительность : 480 мс.
Вид битрейта : Постоянный
Битрейт : 192 Кбит/сек
Каналы : 2 канала
Расположение каналов : Front: L R
Частота : 48,0 КГц
Частота кадров : 31,250 кадров/сек (1536 spf)
Метод сжатия : С потерями
Задержка видео : 49 мс.
Размер потока : 11,3 Кбайт (0%)
Текст
Идентификатор : 189 (0xBD)-32 (0x20)
Формат : RLE
Формат/Информация : Run-length encoding
Режим смешивания : DVD-Video
Меню
Общее
Полное имя : C:\Users\Roman\Alien Nation Dark Horizon\VTS_07_0.BUP
Формат : DVD Video
Профиль формата : Program
Размер файла : 14,0 Кбайт
Продолжительность : 6 с. 500 мс.
Режим общего битрейта : Переменный
Общий поток : 17,6 Кбит/сек
Видео
Идентификатор : 224 (0xE0)
Формат : MPEG Video
Версия формата : Version 2
Продолжительность : 6 с. 507 мс.
Вид битрейта : Переменный
Ширина : 720 пикселей
Высота : 480 пикселей
Соотношение сторон : 4:3
Частота кадров : 29,970 (29970/1000) кадров/сек
Стандарт вещания : NTSC
Метод сжатия : С потерями
Аудио
Идентификатор : 128 (0x80)
Формат : AC-3
Формат/Информация : Audio Coding 3
Продолжительность : 6 с. 500 мс.
Каналы : 2 канала
Частота : 48,0 КГц
Метод сжатия : С потерями
Язык : English
Текст
Идентификатор : 32 (0x20)
Формат : RLE
Формат/Информация : Run-length encoding
Битовая глубина : 2 бит
Меню
Продолжительность : 6 с. 500 мс.
00:00:00.000 : Chapter 1
00:00:00.500 : Chapter 2
00:00:01.000 : Chapter 3
00:00:01.500 : Chapter 4
00:00:02.000 : Chapter 5
00:00:02.500 : Chapter 6
00:00:03.000 : Chapter 7
00:00:03.500 : Chapter 8
00:00:04.000 : Chapter 9
00:00:04.500 : Chapter 10
00:00:05.000 : Chapter 11
00:00:05.500 : Chapter 12
00:00:06.000 : Chapter 13
List (Audio) : 0
List (Subtitles 4/3) : 0
List (Subtitles Wide) : 0
List (Subtitles Letterbox) : 0
List (Subtitles Pan&Scan) : 0
Общее
Полное имя : C:\Users\Roman\Alien Nation Dark Horizon\VTS_07_0.IFO
Формат : DVD Video
Профиль формата : Program
Размер файла : 14,0 Кбайт
Продолжительность : 6 с. 500 мс.
Режим общего битрейта : Переменный
Общий поток : 17,6 Кбит/сек
Видео
Идентификатор : 224 (0xE0)
Формат : MPEG Video
Версия формата : Version 2
Продолжительность : 6 с. 507 мс.
Вид битрейта : Переменный
Ширина : 720 пикселей
Высота : 480 пикселей
Соотношение сторон : 4:3
Частота кадров : 29,970 (29970/1000) кадров/сек
Стандарт вещания : NTSC
Метод сжатия : С потерями
Аудио
Идентификатор : 128 (0x80)
Формат : AC-3
Формат/Информация : Audio Coding 3
Продолжительность : 6 с. 500 мс.
Каналы : 2 канала
Частота : 48,0 КГц
Метод сжатия : С потерями
Язык : English
Текст
Идентификатор : 32 (0x20)
Формат : RLE
Формат/Информация : Run-length encoding
Битовая глубина : 2 бит
Меню
Продолжительность : 6 с. 500 мс.
00:00:00.000 : Chapter 1
00:00:00.500 : Chapter 2
00:00:01.000 : Chapter 3
00:00:01.500 : Chapter 4
00:00:02.000 : Chapter 5
00:00:02.500 : Chapter 6
00:00:03.000 : Chapter 7
00:00:03.500 : Chapter 8
00:00:04.000 : Chapter 9
00:00:04.500 : Chapter 10
00:00:05.000 : Chapter 11
00:00:05.500 : Chapter 12
00:00:06.000 : Chapter 13
List (Audio) : 0
List (Subtitles 4/3) : 0
List (Subtitles Wide) : 0
List (Subtitles Letterbox) : 0
List (Subtitles Pan&Scan) : 0
Общее
Полное имя : C:\Users\Roman\Alien Nation Dark Horizon\VTS_07_1.VOB
Формат : MPEG-PS
Размер файла : 922 Кбайт
Продолжительность : 480 мс.
Общий поток : 15,7 Мбит/сек
Видео
Идентификатор : 224 (0xE0)
Формат : MPEG Video
Версия формата : Version 2
Профиль формата : Main@Main
Параметр BVOP формата : Нет
Параметр матрицы формата : Выборочная
Параметр GOP формата : N=1
Продолжительность : 83 мс.
Максимальный битрейт : 8000 Кбит/сек
Ширина : 720 пикселей
Высота : 480 пикселей
Соотношение сторон : 4:3
Частота кадров : 29,970 (30000/1001) кадров/сек
Стандарт вещания : NTSC
Цветовое пространство : YUV
Субдискретизация насыщенности : 4:2:0
Битовая глубина : 8 бит
Тип развёртки : Прогрессивная
Порядок развёртки : Верхнее поле первое
Метод сжатия : С потерями
Аудио
Идентификатор : 189 (0xBD)-128 (0x80)
Формат : AC-3
Формат/Информация : Audio Coding 3
Расширение режима : CM (complete main)
Параметр Endianness формата : Big
Режим смешивания : DVD-Video
Продолжительность : 480 мс.
Вид битрейта : Постоянный
Битрейт : 192 Кбит/сек
Каналы : 2 канала
Расположение каналов : Front: L R
Частота : 48,0 КГц
Частота кадров : 31,250 кадров/сек (1536 spf)
Метод сжатия : С потерями
Задержка видео : 49 мс.
Размер потока : 11,3 Кбайт (1%)
Текст
Идентификатор : 189 (0xBD)-32 (0x20)
Формат : RLE
Формат/Информация : Run-length encoding
Режим смешивания : DVD-Video
Меню
Общее
Полное имя : C:\Users\Roman\Alien Nation Dark Horizon\VTS_08_0.BUP
Формат : DVD Video
Профиль формата : Program
Размер файла : 14,0 Кбайт
Продолжительность : 16 с.
Режим общего битрейта : Переменный
Общий поток : 7168 бит/сек
Видео
Идентификатор : 224 (0xE0)
Формат : MPEG Video
Версия формата : Version 2
Продолжительность : 16 с.
Вид битрейта : Переменный
Ширина : 720 пикселей
Высота : 480 пикселей
Соотношение сторон : 4:3
Частота кадров : 29,970 (29970/1000) кадров/сек
Стандарт вещания : NTSC
Метод сжатия : С потерями
Аудио
Идентификатор : 128 (0x80)
Формат : AC-3
Формат/Информация : Audio Coding 3
Продолжительность : 16 с.
Каналы : 2 канала
Частота : 48,0 КГц
Метод сжатия : С потерями
Язык : English
Текст
Идентификатор : 32 (0x20)
Формат : RLE
Формат/Информация : Run-length encoding
Битовая глубина : 2 бит
Меню
Продолжительность : 16 с.
00:00:00.000 : Chapter 1
00:00:00.500 : Chapter 2
00:00:01.000 : Chapter 3
00:00:01.500 : Chapter 4
00:00:02.000 : Chapter 5
00:00:02.500 : Chapter 6
00:00:03.000 : Chapter 7
00:00:03.500 : Chapter 8
00:00:04.000 : Chapter 9
00:00:04.500 : Chapter 10
00:00:05.000 : Chapter 11
00:00:05.500 : Chapter 12
00:00:06.000 : Chapter 13
00:00:06.500 : Chapter 14
00:00:07.000 : Chapter 15
00:00:07.500 : Chapter 16
00:00:08.000 : Chapter 17
00:00:08.500 : Chapter 18
00:00:09.000 : Chapter 19
00:00:09.500 : Chapter 20
00:00:10.000 : Chapter 21
00:00:10.500 : Chapter 22
00:00:11.000 : Chapter 23
00:00:11.500 : Chapter 24
00:00:12.000 : Chapter 25
00:00:12.500 : Chapter 26
00:00:13.000 : Chapter 27
00:00:13.500 : Chapter 28
00:00:14.000 : Chapter 29
00:00:14.500 : Chapter 30
00:00:15.000 : Chapter 31
00:00:15.500 : Chapter 32
List (Audio) : 0
List (Subtitles 4/3) : 0
List (Subtitles Wide) : 0
List (Subtitles Letterbox) : 0
List (Subtitles Pan&Scan) : 0
Общее
Полное имя : C:\Users\Roman\Alien Nation Dark Horizon\VTS_08_0.IFO
Формат : DVD Video
Профиль формата : Program
Размер файла : 14,0 Кбайт
Продолжительность : 16 с.
Режим общего битрейта : Переменный
Общий поток : 7168 бит/сек
Видео
Идентификатор : 224 (0xE0)
Формат : MPEG Video
Версия формата : Version 2
Продолжительность : 16 с.
Вид битрейта : Переменный
Ширина : 720 пикселей
Высота : 480 пикселей
Соотношение сторон : 4:3
Частота кадров : 29,970 (29970/1000) кадров/сек
Стандарт вещания : NTSC
Метод сжатия : С потерями
Аудио
Идентификатор : 128 (0x80)
Формат : AC-3
Формат/Информация : Audio Coding 3
Продолжительность : 16 с.
Каналы : 2 канала
Частота : 48,0 КГц
Метод сжатия : С потерями
Язык : English
Текст
Идентификатор : 32 (0x20)
Формат : RLE
Формат/Информация : Run-length encoding
Битовая глубина : 2 бит
Меню
Продолжительность : 16 с.
00:00:00.000 : Chapter 1
00:00:00.500 : Chapter 2
00:00:01.000 : Chapter 3
00:00:01.500 : Chapter 4
00:00:02.000 : Chapter 5
00:00:02.500 : Chapter 6
00:00:03.000 : Chapter 7
00:00:03.500 : Chapter 8
00:00:04.000 : Chapter 9
00:00:04.500 : Chapter 10
00:00:05.000 : Chapter 11
00:00:05.500 : Chapter 12
00:00:06.000 : Chapter 13
00:00:06.500 : Chapter 14
00:00:07.000 : Chapter 15
00:00:07.500 : Chapter 16
00:00:08.000 : Chapter 17
00:00:08.500 : Chapter 18
00:00:09.000 : Chapter 19
00:00:09.500 : Chapter 20
00:00:10.000 : Chapter 21
00:00:10.500 : Chapter 22
00:00:11.000 : Chapter 23
00:00:11.500 : Chapter 24
00:00:12.000 : Chapter 25
00:00:12.500 : Chapter 26
00:00:13.000 : Chapter 27
00:00:13.500 : Chapter 28
00:00:14.000 : Chapter 29
00:00:14.500 : Chapter 30
00:00:15.000 : Chapter 31
00:00:15.500 : Chapter 32
List (Audio) : 0
List (Subtitles 4/3) : 0
List (Subtitles Wide) : 0
List (Subtitles Letterbox) : 0
List (Subtitles Pan&Scan) : 0
Общее
Полное имя : C:\Users\Roman\Alien Nation Dark Horizon\VTS_08_1.VOB
Формат : MPEG-PS
Размер файла : 2,17 Мбайт
Продолжительность : 480 мс.
Общий поток : 37,9 Мбит/сек
Видео
Идентификатор : 224 (0xE0)
Формат : MPEG Video
Версия формата : Version 2
Профиль формата : Main@Main
Параметр BVOP формата : Нет
Параметр матрицы формата : Выборочная
Параметр GOP формата : N=1
Продолжительность : 83 мс.
Максимальный битрейт : 8000 Кбит/сек
Ширина : 720 пикселей
Высота : 480 пикселей
Соотношение сторон : 4:3
Частота кадров : 29,970 (30000/1001) кадров/сек
Стандарт вещания : NTSC
Цветовое пространство : YUV
Субдискретизация насыщенности : 4:2:0
Битовая глубина : 8 бит
Тип развёртки : Прогрессивная
Порядок развёртки : Верхнее поле первое
Метод сжатия : С потерями
Аудио
Идентификатор : 189 (0xBD)-128 (0x80)
Формат : AC-3
Формат/Информация : Audio Coding 3
Расширение режима : CM (complete main)
Параметр Endianness формата : Big
Режим смешивания : DVD-Video
Продолжительность : 480 мс.
Вид битрейта : Постоянный
Битрейт : 192 Кбит/сек
Каналы : 2 канала
Расположение каналов : Front: L R
Частота : 48,0 КГц
Частота кадров : 31,250 кадров/сек (1536 spf)
Метод сжатия : С потерями
Задержка видео : 49 мс.
Размер потока : 11,3 Кбайт (1%)
Текст
Идентификатор : 189 (0xBD)-32 (0x20)
Формат : RLE
Формат/Информация : Run-length encoding
Режим смешивания : DVD-Video
Меню
Общее
Полное имя : C:\Users\Roman\Alien Nation Dark Horizon\VTS_09_0.BUP
Формат : DVD Video
Профиль формата : Program
Размер файла : 14,0 Кбайт
Продолжительность : 10 с.
Режим общего битрейта : Переменный
Общий поток : 11,5 Кбит/сек
Видео
Идентификатор : 224 (0xE0)
Формат : MPEG Video
Версия формата : Version 2
Продолжительность : 10 с.
Вид битрейта : Переменный
Ширина : 720 пикселей
Высота : 480 пикселей
Соотношение сторон : 4:3
Частота кадров : 29,970 (29970/1000) кадров/сек
Стандарт вещания : NTSC
Метод сжатия : С потерями
Аудио
Идентификатор : 128 (0x80)
Формат : AC-3
Формат/Информация : Audio Coding 3
Продолжительность : 10 с.
Каналы : 2 канала
Частота : 48,0 КГц
Метод сжатия : С потерями
Язык : English
Текст
Идентификатор : 32 (0x20)
Формат : RLE
Формат/Информация : Run-length encoding
Битовая глубина : 2 бит
Меню
Продолжительность : 10 с.
00:00:00.000 : Chapter 1
00:00:00.500 : Chapter 2
00:00:01.000 : Chapter 3
00:00:01.500 : Chapter 4
00:00:02.000 : Chapter 5
00:00:02.500 : Chapter 6
00:00:03.000 : Chapter 7
00:00:03.500 : Chapter 8
00:00:04.000 : Chapter 9
00:00:04.500 : Chapter 10
00:00:05.000 : Chapter 11
00:00:05.500 : Chapter 12
00:00:06.000 : Chapter 13
00:00:06.500 : Chapter 14
00:00:07.000 : Chapter 15
00:00:07.500 : Chapter 16
00:00:08.000 : Chapter 17
00:00:08.500 : Chapter 18
00:00:09.000 : Chapter 19
00:00:09.500 : Chapter 20
List (Audio) : 0
List (Subtitles 4/3) : 0
List (Subtitles Wide) : 0
List (Subtitles Letterbox) : 0
List (Subtitles Pan&Scan) : 0
Общее
Полное имя : C:\Users\Roman\Alien Nation Dark Horizon\VTS_09_0.IFO
Формат : DVD Video
Профиль формата : Program
Размер файла : 14,0 Кбайт
Продолжительность : 10 с.
Режим общего битрейта : Переменный
Общий поток : 11,5 Кбит/сек
Видео
Идентификатор : 224 (0xE0)
Формат : MPEG Video
Версия формата : Version 2
Продолжительность : 10 с.
Вид битрейта : Переменный
Ширина : 720 пикселей
Высота : 480 пикселей
Соотношение сторон : 4:3
Частота кадров : 29,970 (29970/1000) кадров/сек
Стандарт вещания : NTSC
Метод сжатия : С потерями
Аудио
Идентификатор : 128 (0x80)
Формат : AC-3
Формат/Информация : Audio Coding 3
Продолжительность : 10 с.
Каналы : 2 канала
Частота : 48,0 КГц
Метод сжатия : С потерями
Язык : English
Текст
Идентификатор : 32 (0x20)
Формат : RLE
Формат/Информация : Run-length encoding
Битовая глубина : 2 бит
Меню
Продолжительность : 10 с.
00:00:00.000 : Chapter 1
00:00:00.500 : Chapter 2
00:00:01.000 : Chapter 3
00:00:01.500 : Chapter 4
00:00:02.000 : Chapter 5
00:00:02.500 : Chapter 6
00:00:03.000 : Chapter 7
00:00:03.500 : Chapter 8
00:00:04.000 : Chapter 9
00:00:04.500 : Chapter 10
00:00:05.000 : Chapter 11
00:00:05.500 : Chapter 12
00:00:06.000 : Chapter 13
00:00:06.500 : Chapter 14
00:00:07.000 : Chapter 15
00:00:07.500 : Chapter 16
00:00:08.000 : Chapter 17
00:00:08.500 : Chapter 18
00:00:09.000 : Chapter 19
00:00:09.500 : Chapter 20
List (Audio) : 0
List (Subtitles 4/3) : 0
List (Subtitles Wide) : 0
List (Subtitles Letterbox) : 0
List (Subtitles Pan&Scan) : 0
Общее
Полное имя : C:\Users\Roman\Alien Nation Dark Horizon\VTS_09_1.VOB
Формат : MPEG-PS
Размер файла : 1,84 Мбайт
Продолжительность : 480 мс.
Общий поток : 32,1 Мбит/сек
Видео
Идентификатор : 224 (0xE0)
Формат : MPEG Video
Версия формата : Version 2
Профиль формата : Main@Main
Параметр BVOP формата : Нет
Параметр матрицы формата : Выборочная
Параметр GOP формата : N=1
Продолжительность : 83 мс.
Максимальный битрейт : 8000 Кбит/сек
Ширина : 720 пикселей
Высота : 480 пикселей
Соотношение сторон : 4:3
Частота кадров : 29,970 (30000/1001) кадров/сек
Стандарт вещания : NTSC
Цветовое пространство : YUV
Субдискретизация насыщенности : 4:2:0
Битовая глубина : 8 бит
Тип развёртки : Прогрессивная
Порядок развёртки : Верхнее поле первое
Метод сжатия : С потерями
Аудио
Идентификатор : 189 (0xBD)-128 (0x80)
Формат : AC-3
Формат/Информация : Audio Coding 3
Расширение режима : CM (complete main)
Параметр Endianness формата : Big
Режим смешивания : DVD-Video
Продолжительность : 480 мс.
Вид битрейта : Постоянный
Битрейт : 192 Кбит/сек
Каналы : 2 канала
Расположение каналов : Front: L R
Частота : 48,0 КГц
Частота кадров : 31,250 кадров/сек (1536 spf)
Метод сжатия : С потерями
Задержка видео : 49 мс.
Размер потока : 11,3 Кбайт (1%)
Текст
Идентификатор : 189 (0xBD)-32 (0x20)
Формат : RLE
Формат/Информация : Run-length encoding
Режим смешивания : DVD-Video
Меню

Скриншот c названием фильма

Скриншоты



Скринлист

cd Рип дополнительно залит на ОБЛАКО cd2


Last edited by CROM@G on 2016-08-24 06:00; edited 1 time in total
[Profile] [PM]

CROM@G ®

Gender: Male

Longevity: 5 years

Posts: 3371

Location: Прибалтика

Post 23-Aug-2016 21:40 (after 2 hours 26 minutes)

[Quote]

Гы. Неправильно написал. Рокне С. О`Бэннон это актер ,,На краю вселенной ,, он в главной роли играл Так же как и в Старгейте когда заменил Ричард Дин Андерсона
[Profile] [PM]

admin

Gender: Male

Longevity: 8 years

Posts: 4794

Post 23-Aug-2016 22:05 (after 24 minutes)

[Quote]

Есть же дорожка с профи ПМ переводом. Зря не добавили.


Last edited by admin on 2016-08-23 22:17; edited 1 time in total
[Profile] [PM]

CROM@G ®

Gender: Male

Longevity: 5 years

Posts: 3371

Location: Прибалтика

Post 23-Aug-2016 22:13 (after 8 minutes)

[Quote]

15678Есть же дорожка с профи ПМ переводом. Зря не добвыили.
Епррсттт Я же написал я ее засек когда раздачу делал А тормошить в очередной раз анвика не хочу Он мне уже 5 лет диски собирает И дальше будет собирать Вот
[Profile] [PM]

$Shorox

Gender: Male

Longevity: 7 years 9 months

Posts: 1887

Post 23-Aug-2016 22:16 (after 2 minutes)

[Quote]

admin,
Я потом вставлю, на облако залью и поменяем в этой раздаче.
[Profile] [PM]

admin

Gender: Male

Longevity: 8 years

Posts: 4794

Post 23-Aug-2016 22:51 (after 35 minutes)

[Quote]

Русская ПМ дорожка изначально в МР3.
Проверить синхронизацию пока не могу
https://cloud.mail.ru/public/3VWt/KQBBNCe6Q
[Profile] [PM]

$Shorox

Gender: Male

Longevity: 7 years 9 months

Posts: 1887

Post 24-Aug-2016 05:37 (after 6 hours)

[Quote]

admin,
Синхронизацию я сам могу проверить. Косяки с шумами и перегрузами, ... я вряд ли смогу поправить.
Я вставлю дорогу, сейчас надо пару книг сделать. Может ещё Карл Иванович что-нибудь переведёт.
[Profile] [PM]

CROM@G ®

Gender: Male

Longevity: 5 years

Posts: 3371

Location: Прибалтика

Post 24-Aug-2016 06:00 (after 23 minutes)

[Quote]

$Shorox, Какие еще шумы перегрузы ????
[Profile] [PM]

$Shorox

Gender: Male

Longevity: 7 years 9 months

Posts: 1887

Post 24-Aug-2016 06:49 (after 48 minutes)

[Quote]

croMAG,
admin не просто дорожку вставляет. Он смотрит, чтобы она качественная была. Он правит её от косяков.
[Profile] [PM]

CROM@G ®

Gender: Male

Longevity: 5 years

Posts: 3371

Location: Прибалтика

Post 24-Aug-2016 16:41 (after 9 hours)

[Quote]

Эээммм Я лично эквалайзер на этот случай приобрел
[Profile] [PM]

$Shorox

Gender: Male

Longevity: 7 years 9 months

Posts: 1887

Post 28-Aug-2016 17:27 (after 4 days)

[Quote]

croMAG,
Забыл про своё обещание. На неделе соберу.
[Profile] [PM]

CROM@G ®

Gender: Male

Longevity: 5 years

Posts: 3371

Location: Прибалтика

Post 28-Aug-2016 18:23 (after 56 minutes)

[Quote]

$Shorox, ААаа Ерунда Жизнь такая что либо дохнешь от безделья либо нихера не успеваешь
[Profile] [PM]
Display posts:    
Reply to topic

Current time is: 20-Sep 17:44

All times are UTC + 3



You cannot post new topics in this forum
You cannot reply to topics in this forum
You cannot edit your posts in this forum
You cannot delete your posts in this forum
You cannot vote in polls in this forum
You cannot attach files in this forum
You cannot download files in this forum