Незнакомец / The Stranger (Билл Баггс / Bill Baggs) [1992-1993, Великобритания, фантастика, DVDRip] (СТ : karlivanovich) (Sub Rus)

Ответить на тему
 
Автор Сообщение

$Shorox ®

Пол: Мужской

Стаж: 5 лет 10 месяцев

Сообщений: 1888

Создавать темы 14-Авг-2016 06:59

[Цитировать]

Незнакомец / The Stranger
Страна: Великобритания, Bill & Ben Video (BBV)
Жанр: фантастика
Год выпуска: 1992-1993
Продолжительность: 00:35:00
Перевод: Субтитры karlivanovich
Cубтитры: русские
Режиссер: Билл Баггс / Bill Baggs
В ролях: Колин Бэйкер, Никола Брайант, Хелен Хьюлетт, Джон Сэйерс, Хезер Трэйси, John Wadmore, Майкл Уишер,Джулиан Бут
Описание: Английский минисериал "Незнакомец". Каждая серия отдельная история. Продолжительность каждой серии разная, от 35 минут до 1,5 часов. Замысловатые серии. Рассказывать о чём, нет смысла, сразу станет неинтересно. Разгадка в конце серии, если кто поймёт о чём фильм.
Я бы это сериалом не назвал, потому что нет никакой связи между сериями даже в манере съёмок.
https://en.wikipedia.org/wiki/The_Stranger_(video_series)
Релиз

Список серий:
1. Summoned by Shadows - Вызванный тенями
2. ...
3. In Memory Alone - Только в памяти





Сэмпл: http://multi-up.com/
Работа над релизом:
Релиз kosmoaelita
Русский релиз увидел свет благодаря kosmoaelita, croMAG
Перевод - karlivanovich
Рипы найдены на tv-vault

Качество видео: DVDRip
Формат видео: MKV
Видео: DivX, 1590 Кбит/сек, 512x384, 4:3, 29,970 кадров/сек
Аудио: Английский, MP3, 96,0 Кбит/сек, 2 канала, 44,1 КГц
Формат субтитров: softsub (SRT)
Доп. информация о субтитрах: karlivanovich

MediaInfo

Общее
Уникальный идентификатор : 251924925046735763635095708956005120934 (0xBD86F9C6B8BE791D8590C08CBF6E3BA6)
Полное имя : F:\Torrent T\BBV - The Stranger kosmoaelita\BBV - The Stranger 1 - Summoned by Shadows [1962] kosmoaelita.mkv
Формат : Matroska
Версия формата : Version 4 / Version 2
Размер файла : 430 Мбайт
Продолжительность : 34 м.
Общий поток : 1720 Кбит/сек
Дата кодирования : UTC 2016-08-14 02:29:35
Программа кодирования : mkvmerge v7.9.0 ('Birds') 64bit
Библиотека кодирования : libebml v1.3.1 + libmatroska v1.4.2
DURATION : 00:33:51.560000000
NUMBER_OF_FRAMES : 265
NUMBER_OF_BYTES : 12438
_STATISTICS_WRITING_APP : mkvmerge v7.9.0 ('Birds') 64bit
_STATISTICS_WRITING_DATE_UTC : 2016-08-14 02:29:35
_STATISTICS_TAGS : BPS DURATION NUMBER_OF_FRAMES NUMBER_OF_BYTES
Attachment : Yes
Видео
Идентификатор : 1
Формат : MPEG-4 Visual
Идентификатор кодека : V_MS/VFW/FOURCC / DIV3
Идентификатор кодека/Подсказка : DivX 3 Low
Продолжительность : 34 м.
Битрейт : 1590 Кбит/сек
Ширина : 512 пикселей
Высота : 384 пикселя
Соотношение сторон : 4:3
Режим частоты кадров : Постоянный
Частота кадров : 29,970 кадров/сек
Цветовое пространство : YUV
Субдискретизация насыщенности : 4:2:0
Битовая глубина : 8 бит
Метод сжатия : С потерями
Бит/(Пиксели*Кадры) : 0.270
Размер потока : 397 Мбайт (92%)
Default : Да
Forced : Нет
Аудио
Идентификатор : 2
Формат : MPEG Audio
Версия формата : Version 1
Профиль формата : Layer 3
Режим : Joint stereo
Расширение режима : Intensity Stereo + MS Stereo
Идентификатор кодека : A_MPEG/L3
Идентификатор кодека/Подсказка : MP3
Продолжительность : 34 м.
Вид битрейта : Постоянный
Битрейт : 96,0 Кбит/сек
Каналы : 2 канала
Частота : 44,1 КГц
Метод сжатия : С потерями
Размер потока : 24,0 Мбайт (6%)
Заголовок : Английский
Язык : English
Default : Да
Forced : Нет
Текст
Идентификатор : 3
Формат : UTF-8
Идентификатор кодека : S_TEXT/UTF8
Идентификатор кодека/Информация : UTF-8 Plain Text
Заголовок : Русский (karlivanovich-kosmoaelita)
Язык : Russian
Default : Да
Forced : Нет

Постеры на серии

Скриншот c названием фильма

Скриншоты








Последний раз редактировалось: $Shorox (2016-08-14 11:26), всего редактировалось 6 раз(а)
[Профиль] [ЛС]

$Shorox ®

Пол: Мужской

Стаж: 5 лет 10 месяцев

Сообщений: 1888

Создавать темы 14-Авг-2016 09:49 (спустя 2 часа 50 минут)

[Цитировать]

Качество видео у серий разное.
*****
В первой серии вообще ничего не понял. Не въехал абсолютно. Надо почитать, что про неё пишут.
В третьей в конце серии малость прояснилось.
[Профиль] [ЛС]

admin

Пол: Мужской

Стаж: 6 лет 2 месяца

Сообщений: 4731

Откуда: Україна

Создавать темы 14-Авг-2016 18:07 (спустя 8 часов)

[Цитировать]

Год в названии файлов указан неверно.
В третьей части звука нет в левом канале - только какие-то щелчки
[Профиль] [ЛС]

$Shorox ®

Пол: Мужской

Стаж: 5 лет 10 месяцев

Сообщений: 1888

Создавать темы 14-Авг-2016 18:26 (спустя 19 минут)

[Цитировать]

admin,
Год поправлю потом. Видеофайлов других пока нет.
Серии там разнокалиберные и по качеству и по времени. Если переводить, то надо будет о цене за перевод по каждой договариватся.
***
tv-vault.me фрилич
[Профиль] [ЛС]

admin

Пол: Мужской

Стаж: 6 лет 2 месяца

Сообщений: 4731

Откуда: Україна

Создавать темы 14-Авг-2016 18:56 (спустя 29 минут)

[Цитировать]

Перезалито. Исправлен звук.
[Профиль] [ЛС]

croMAG

Пол: Мужской

Стаж: 3 года 1 месяц

Сообщений: 1953

Откуда: Прибалтика

Создавать темы 14-Авг-2016 18:56 (спустя 14 секунд)

[Цитировать]

$Shorox, На всех раздачах что ли ??
[Профиль] [ЛС]

$Shorox ®

Пол: Мужской

Стаж: 5 лет 10 месяцев

Сообщений: 1888

Создавать темы 14-Авг-2016 18:59 (спустя 3 минуты)

[Цитировать]

croMAG,
Я не знаю. Я весь сериал + бонус залил Карл Ивановичу. У меня их нет.
[Профиль] [ЛС]

croMAG

Пол: Мужской

Стаж: 3 года 1 месяц

Сообщений: 1953

Откуда: Прибалтика

Создавать темы 14-Авг-2016 19:01 (спустя 2 минуты)

[Цитировать]

$Shorox, Какой сериал ?? Этот ?? А там что разве не написано??
[Профиль] [ЛС]

$Shorox ®

Пол: Мужской

Стаж: 5 лет 10 месяцев

Сообщений: 1888

Создавать темы 14-Авг-2016 19:08 (спустя 7 минут)

[Цитировать]

croMAG,
Этот сериал.
Там фрилич. Можешь скачать и посмотреть сам. Нечего там не пишут про качество.
[Профиль] [ЛС]

croMAG

Пол: Мужской

Стаж: 3 года 1 месяц

Сообщений: 1953

Откуда: Прибалтика

Создавать темы 14-Авг-2016 19:41 (спустя 32 минуты)

[Цитировать]

$Shorox, Я про качество и не спрашивал
[Профиль] [ЛС]

croMAG

Пол: Мужской

Стаж: 3 года 1 месяц

Сообщений: 1953

Откуда: Прибалтика

Создавать темы 14-Авг-2016 23:21 (спустя 3 часа)

[Цитировать]

Скачаю завтра
[Профиль] [ЛС]
Показать сообщения:    
Ответить на тему

Текущее время: 14-Ноя 06:36

Часовой пояс: UTC + 3:30



Вы не можете начинать темы
Вы не можете отвечать на сообщения
Вы не можете редактировать свои сообщения
Вы не можете удалять свои сообщения
Вы не можете голосовать в опросах
Вы не можете прикреплять файлы к сообщениям
Вы не можете скачивать файлы