Нация пришельцев Миллениум / Alien Nation: Millennium (Кеннет Джонсон /Kenneth Johnson/.) [1996., США Германия, Фантастика., DVD5] (ПМ)

Reply to topic
 
Author Message

CROM@G ®

Gender: Male

Longevity: 4 years 10 months

Posts: 3335

Location: Прибалтика

Post 05-Aug-2016 22:32

[Quote]

Нация пришельцев . Миллениум / Alien Nation: Millennium
Страна: США Германия
Жанр: Фантастика.
Год выпуска: 1996.
Продолжительность: 01:30:25.
Перевод: Профессиональный (многоголосый)
Режиссер: Кеннет Джонсон /Kenneth Johnson/.
В ролях: Гэри Грэм /Gary Graham/, Эрик Пирпойнт /Eric Pierpoint/, Микеле Скарабелли /Michele Scarabelli/, Терри Триз /Terri Treas/, Лорен Вудлэнд /Lauren Woodland/, Шон Сикс /Sean Six/, Джефф Маркус /Jeff Marcus/, Рон Фэсслер /Ron Fassler/, Дженни Гэго /Jenny Gago/, Брайан Маркинсон /Brian Markinson/, Херта Уэр /Herta Ware/, Стивен Флинн /Steven Flynn/, Фреда Фох Шен /Freda Foh Shen/, Сьюзан Дайол /Susan Diol/, Эллис Уильямс /Ellis Williams/.
Описание: #1. Накануне нового тысячелетия, количество самоубийств резко возрастает. Люди и пришельцы бесследно исчезают. Завладев инопланетным артефактом, способным создавать зрительные иллюзии, секта отщепенцев использует устройство для выкачки денег из несчастных и суеверных обитателей Земли, с которыми затем происходят несчастные случаи. Затянут в секту и сын полицейского-пришельца Франциско…
#2. До следующего тысячелетия остается несколько дней, а количество самоубийств увеличивается. Люди и пришельцы куда-то исчезают, и полиция не может найти тела. Наши старые знакомые полицейские, землянин и пришелец, занимаются таинственным делом. Отщепенцы-злодеи из числа пришельцев во главе с Калибаном завладели устройством под названием "портал", используемым в религии пришельцев для создания зрительных иллюзий подсознания, и создали секту для вытягивания "зелененьких" из несчастных и впечатлительных, с которыми затем происходили несчастные случаи. Затянут ими и сын полицейского-пришельца. Отец вместе с напарником спасают сына и остальных одурманенных. (Иванов М.)
Доп. информация: Дорогу спер отседа https://rutracker.org/forum/viewtopic.php?t=2369779 Двд выковырил admin c BitHQ А разобрал собрал и синхронизировал Silverbeast ex- синемаскоп . Начинаем цикл ,,Нация Пришельцев ,, в достойном качестве
Проект от croMAG
Качество видео: DVD5
Формат видео: DVD Video
Видео: MPEG2 720х480 (4:3) NTSC 29.970 к.сек битрейт переменный
Аудио: AC-3 2 ch. 48Кгц
Аудио 2: AC-3 2 ch. 48Кгц

MediaInfo

Общее
Полное имя : C:\Users\Roman\Downloads\VIDEO_TS\VIDEO_TS.BUP
Формат : DVD Video
Профиль формата : Menu
Размер файла : 26,0 Кбайт
Режим общего битрейта : Переменный
Видео
Идентификатор : 224 (0xE0)
Формат : MPEG Video
Версия формата : Version 2
Вид битрейта : Переменный
Ширина : 720 пикселей
Высота : 480 пикселей
Соотношение сторон : 4:3
Частота кадров : 29,970 (29970/1000) кадров/сек
Стандарт вещания : NTSC
Метод сжатия : С потерями
Текст
Формат : RLE
Формат/Информация : Run-length encoding
Битовая глубина : 2 бит
Общее
Полное имя : C:\Users\Roman\Downloads\VIDEO_TS\VIDEO_TS.IFO
Формат : DVD Video
Профиль формата : Menu
Размер файла : 26,0 Кбайт
Режим общего битрейта : Переменный
Видео
Идентификатор : 224 (0xE0)
Формат : MPEG Video
Версия формата : Version 2
Вид битрейта : Переменный
Ширина : 720 пикселей
Высота : 480 пикселей
Соотношение сторон : 4:3
Частота кадров : 29,970 (29970/1000) кадров/сек
Стандарт вещания : NTSC
Метод сжатия : С потерями
Текст
Формат : RLE
Формат/Информация : Run-length encoding
Битовая глубина : 2 бит
Общее
Полное имя : C:\Users\Roman\Downloads\VIDEO_TS\VIDEO_TS.VOB
Формат : MPEG-PS
Размер файла : 1,01 Мбайт
Продолжительность : 33 мс.
Режим общего битрейта : Переменный
Общий поток : 257 Мбит/сек
Видео
Идентификатор : 224 (0xE0)
Формат : MPEG Video
Версия формата : Version 2
Профиль формата : Main@Main
Параметр BVOP формата : Нет
Параметр матрицы формата : Выборочная
Параметр GOP формата : N=1
Продолжительность : 33 мс.
Вид битрейта : Переменный
Максимальный битрейт : 4587 Кбит/сек
Ширина : 720 пикселей
Высота : 480 пикселей
Соотношение сторон : 4:3
Частота кадров : 29,970 (30000/1001) кадров/сек
Стандарт вещания : NTSC
Цветовое пространство : YUV
Субдискретизация насыщенности : 4:2:0
Битовая глубина : 8 бит
Тип развёртки : Прогрессивная
Порядок развёртки : Верхнее поле первое
Метод сжатия : С потерями
Основные цвета : BT.601 NTSC
Характеристики трансфера : BT.601
Коэффициенты матрицы : BT.601
Меню
Общее
Полное имя : C:\Users\Roman\Downloads\VIDEO_TS\VTS_01_0.BUP
Формат : DVD Video
Профиль формата : Program
Размер файла : 14,0 Кбайт
Продолжительность : 400 мс.
Режим общего битрейта : Переменный
Общий поток : 287 Кбит/сек
Видео
Идентификатор : 224 (0xE0)
Формат : MPEG Video
Версия формата : Version 2
Продолжительность : 400 мс.
Вид битрейта : Переменный
Ширина : 720 пикселей
Высота : 480 пикселей
Соотношение сторон : 4:3
Частота кадров : 29,970 (29970/1000) кадров/сек
Стандарт вещания : NTSC
Метод сжатия : С потерями
Аудио #1
Идентификатор : 128 (0x80)
Формат : AC-3
Формат/Информация : Audio Coding 3
Продолжительность : 400 мс.
Каналы : 2 канала
Частота : 48,0 КГц
Метод сжатия : С потерями
Аудио #2
Идентификатор : 129 (0x81)
Формат : AC-3
Формат/Информация : Audio Coding 3
Продолжительность : 400 мс.
Каналы : 2 канала
Частота : 48,0 КГц
Метод сжатия : С потерями
Аудио #3
Идентификатор : 130 (0x82)
Формат : AC-3
Формат/Информация : Audio Coding 3
Продолжительность : 400 мс.
Каналы : 2 канала
Частота : 48,0 КГц
Метод сжатия : С потерями
Текст #1
Идентификатор : 32 (0x20)
Формат : RLE
Формат/Информация : Run-length encoding
Битовая глубина : 2 бит
Текст #2
Идентификатор : 32 (0x20)
Формат : RLE
Формат/Информация : Run-length encoding
Битовая глубина : 2 бит
Текст #3
Идентификатор : 32 (0x20)
Формат : RLE
Формат/Информация : Run-length encoding
Битовая глубина : 2 бит
Меню
Продолжительность : 400 мс.
00:00:00.000 : Chapter 1
List (Audio) : 0 / 1 / 2
List (Subtitles 4/3) : 0 / 1 / 2
List (Subtitles Wide) : 0 / 0 / 0
List (Subtitles Letterbox) : 0 / 0 / 0
List (Subtitles Pan&Scan) : 0 / 0 / 0
Общее
Полное имя : C:\Users\Roman\Downloads\VIDEO_TS\VTS_01_0.IFO
Формат : DVD Video
Профиль формата : Program
Размер файла : 14,0 Кбайт
Продолжительность : 400 мс.
Режим общего битрейта : Переменный
Общий поток : 287 Кбит/сек
Видео
Идентификатор : 224 (0xE0)
Формат : MPEG Video
Версия формата : Version 2
Продолжительность : 400 мс.
Вид битрейта : Переменный
Ширина : 720 пикселей
Высота : 480 пикселей
Соотношение сторон : 4:3
Частота кадров : 29,970 (29970/1000) кадров/сек
Стандарт вещания : NTSC
Метод сжатия : С потерями
Аудио #1
Идентификатор : 128 (0x80)
Формат : AC-3
Формат/Информация : Audio Coding 3
Продолжительность : 400 мс.
Каналы : 2 канала
Частота : 48,0 КГц
Метод сжатия : С потерями
Аудио #2
Идентификатор : 129 (0x81)
Формат : AC-3
Формат/Информация : Audio Coding 3
Продолжительность : 400 мс.
Каналы : 2 канала
Частота : 48,0 КГц
Метод сжатия : С потерями
Аудио #3
Идентификатор : 130 (0x82)
Формат : AC-3
Формат/Информация : Audio Coding 3
Продолжительность : 400 мс.
Каналы : 2 канала
Частота : 48,0 КГц
Метод сжатия : С потерями
Текст #1
Идентификатор : 32 (0x20)
Формат : RLE
Формат/Информация : Run-length encoding
Битовая глубина : 2 бит
Текст #2
Идентификатор : 32 (0x20)
Формат : RLE
Формат/Информация : Run-length encoding
Битовая глубина : 2 бит
Текст #3
Идентификатор : 32 (0x20)
Формат : RLE
Формат/Информация : Run-length encoding
Битовая глубина : 2 бит
Меню
Продолжительность : 400 мс.
00:00:00.000 : Chapter 1
List (Audio) : 0 / 1 / 2
List (Subtitles 4/3) : 0 / 1 / 2
List (Subtitles Wide) : 0 / 0 / 0
List (Subtitles Letterbox) : 0 / 0 / 0
List (Subtitles Pan&Scan) : 0 / 0 / 0
Общее
Полное имя : C:\Users\Roman\Downloads\VIDEO_TS\VTS_01_1.VOB
Формат : MPEG-PS
Размер файла : 14,0 Кбайт
Продолжительность : 400 мс.
Общий поток : 287 Кбит/сек
Библиотека кодирования : encoded by TMPGEnc (ver. 2.524.63.181)
Видео
Идентификатор : 224 (0xE0)
Формат : MPEG Video
Версия формата : Version 2
Профиль формата : Main@Main
Параметр BVOP формата : Нет
Параметр матрицы формата : По умолчанию
Продолжительность : 400 мс.
Максимальный битрейт : 100,0 Кбит/сек
Ширина : 720 пикселей
Высота : 480 пикселей
Соотношение сторон : 4:3
Частота кадров : 29,970 (30000/1001) кадров/сек
Стандарт вещания : NTSC
Цветовое пространство : YUV
Субдискретизация насыщенности : 4:2:0
Битовая глубина : 8 бит
Тип развёртки : Прогрессивная
Метод сжатия : С потерями
Временной код первого кадра : 00:00:00:00
Оригинал временного кода : Group of pictures header
Библиотека кодирования : TMPGEnc 2.524.63.181
Основные цвета : BT.601 NTSC
Характеристики трансфера : BT.601
Коэффициенты матрицы : BT.601
Меню
Общее
Полное имя : C:\Users\Roman\Downloads\VIDEO_TS\VTS_02_0.BUP
Формат : DVD Video
Профиль формата : Program
Размер файла : 14,0 Кбайт
Продолжительность : 8 с. 0 мс.
Режим общего битрейта : Переменный
Общий поток : 14,3 Кбит/сек
Видео
Идентификатор : 224 (0xE0)
Формат : MPEG Video
Версия формата : Version 2
Продолжительность : 8 с. 8 мс.
Вид битрейта : Переменный
Ширина : 720 пикселей
Высота : 480 пикселей
Соотношение сторон : 4:3
Частота кадров : 29,970 (29970/1000) кадров/сек
Стандарт вещания : NTSC
Метод сжатия : С потерями
Меню
Продолжительность : 8 с. 0 мс.
00:00:00.000 : Chapter 1
00:00:07.500 : Chapter 2
Общее
Полное имя : C:\Users\Roman\Downloads\VIDEO_TS\VTS_02_0.IFO
Формат : DVD Video
Профиль формата : Program
Размер файла : 14,0 Кбайт
Продолжительность : 8 с. 0 мс.
Режим общего битрейта : Переменный
Общий поток : 14,3 Кбит/сек
Видео
Идентификатор : 224 (0xE0)
Формат : MPEG Video
Версия формата : Version 2
Продолжительность : 8 с. 8 мс.
Вид битрейта : Переменный
Ширина : 720 пикселей
Высота : 480 пикселей
Соотношение сторон : 4:3
Частота кадров : 29,970 (29970/1000) кадров/сек
Стандарт вещания : NTSC
Метод сжатия : С потерями
Меню
Продолжительность : 8 с. 0 мс.
00:00:00.000 : Chapter 1
00:00:07.500 : Chapter 2
Общее
Полное имя : C:\Users\Roman\Downloads\VIDEO_TS\VTS_02_1.VOB
Формат : MPEG-PS
Размер файла : 7,56 Мбайт
Продолжительность : 349 мс.
Режим общего битрейта : Переменный
Общий поток : 182 Мбит/сек
Видео
Идентификатор : 224 (0xE0)
Формат : MPEG Video
Версия формата : Version 2
Профиль формата : Main@Main
Параметр BVOP формата : Да
Параметр матрицы формата : Выборочная
Параметр GOP формата : M=3, N=15
Структура изображения : Frame
Продолжительность : 349 мс.
Вид битрейта : Переменный
Максимальный битрейт : 9800 Кбит/сек
Ширина : 720 пикселей
Высота : 480 пикселей
Соотношение сторон : 4:3
Частота кадров : 29,970 (30000/1001) кадров/сек
Стандарт вещания : Component
Цветовое пространство : YUV
Субдискретизация насыщенности : 4:2:0
Битовая глубина : 8 бит
Тип развёртки : Чересстрочная
Порядок развёртки : Верхнее поле первое
Метод сжатия : С потерями
Временной код первого кадра : 01:00:00;00
Оригинал временного кода : Group of pictures header
GOP, открыто/закрыто : Открыто
GOP, открыто/закрыто на первом кадре : Закрыто
Основные цвета : BT.601 NTSC
Характеристики трансфера : BT.601
Коэффициенты матрицы : BT.601
Меню
Общее
Полное имя : C:\Users\Roman\Downloads\VIDEO_TS\VTS_03_0.BUP
Формат : DVD Video
Профиль формата : Program
Размер файла : 28,0 Кбайт
Продолжительность : 400 мс.
Режим общего битрейта : Переменный
Общий поток : 573 Кбит/сек
Видео
Идентификатор : 224 (0xE0)
Формат : MPEG Video
Версия формата : Version 2
Продолжительность : 400 мс.
Вид битрейта : Переменный
Ширина : 720 пикселей
Высота : 480 пикселей
Соотношение сторон : 4:3
Частота кадров : 29,970 (29970/1000) кадров/сек
Стандарт вещания : NTSC
Метод сжатия : С потерями
Аудио #1
Идентификатор : 128 (0x80)
Формат : AC-3
Формат/Информация : Audio Coding 3
Продолжительность : 400 мс.
Каналы : 2 канала
Частота : 48,0 КГц
Метод сжатия : С потерями
Аудио #2
Идентификатор : 129 (0x81)
Формат : AC-3
Формат/Информация : Audio Coding 3
Продолжительность : 400 мс.
Каналы : 2 канала
Частота : 48,0 КГц
Метод сжатия : С потерями
Аудио #3
Идентификатор : 130 (0x82)
Формат : AC-3
Формат/Информация : Audio Coding 3
Продолжительность : 400 мс.
Каналы : 2 канала
Частота : 48,0 КГц
Метод сжатия : С потерями
Текст #1
Идентификатор : 32 (0x20)
Формат : RLE
Формат/Информация : Run-length encoding
Битовая глубина : 2 бит
Текст #2
Идентификатор : 32 (0x20)
Формат : RLE
Формат/Информация : Run-length encoding
Битовая глубина : 2 бит
Текст #3
Идентификатор : 32 (0x20)
Формат : RLE
Формат/Информация : Run-length encoding
Битовая глубина : 2 бит
Меню
Продолжительность : 400 мс.
00:00:00.000 : Chapter 1
List (Audio) : 0 / 1 / 2
List (Subtitles 4/3) : 0 / 1 / 2
List (Subtitles Wide) : 0 / 0 / 0
List (Subtitles Letterbox) : 0 / 0 / 0
List (Subtitles Pan&Scan) : 0 / 0 / 0
Общее
Полное имя : C:\Users\Roman\Downloads\VIDEO_TS\VTS_03_0.IFO
Формат : DVD Video
Профиль формата : Program
Размер файла : 28,0 Кбайт
Продолжительность : 400 мс.
Режим общего битрейта : Переменный
Общий поток : 573 Кбит/сек
Видео
Идентификатор : 224 (0xE0)
Формат : MPEG Video
Версия формата : Version 2
Продолжительность : 400 мс.
Вид битрейта : Переменный
Ширина : 720 пикселей
Высота : 480 пикселей
Соотношение сторон : 4:3
Частота кадров : 29,970 (29970/1000) кадров/сек
Стандарт вещания : NTSC
Метод сжатия : С потерями
Аудио #1
Идентификатор : 128 (0x80)
Формат : AC-3
Формат/Информация : Audio Coding 3
Продолжительность : 400 мс.
Каналы : 2 канала
Частота : 48,0 КГц
Метод сжатия : С потерями
Аудио #2
Идентификатор : 129 (0x81)
Формат : AC-3
Формат/Информация : Audio Coding 3
Продолжительность : 400 мс.
Каналы : 2 канала
Частота : 48,0 КГц
Метод сжатия : С потерями
Аудио #3
Идентификатор : 130 (0x82)
Формат : AC-3
Формат/Информация : Audio Coding 3
Продолжительность : 400 мс.
Каналы : 2 канала
Частота : 48,0 КГц
Метод сжатия : С потерями
Текст #1
Идентификатор : 32 (0x20)
Формат : RLE
Формат/Информация : Run-length encoding
Битовая глубина : 2 бит
Текст #2
Идентификатор : 32 (0x20)
Формат : RLE
Формат/Информация : Run-length encoding
Битовая глубина : 2 бит
Текст #3
Идентификатор : 32 (0x20)
Формат : RLE
Формат/Информация : Run-length encoding
Битовая глубина : 2 бит
Меню
Продолжительность : 400 мс.
00:00:00.000 : Chapter 1
List (Audio) : 0 / 1 / 2
List (Subtitles 4/3) : 0 / 1 / 2
List (Subtitles Wide) : 0 / 0 / 0
List (Subtitles Letterbox) : 0 / 0 / 0
List (Subtitles Pan&Scan) : 0 / 0 / 0
Общее
Полное имя : C:\Users\Roman\Downloads\VIDEO_TS\VTS_03_0.VOB
Формат : MPEG-PS
Размер файла : 41,6 Мбайт
Продолжительность : 534 мс.
Режим общего битрейта : Переменный
Общий поток : 654 Мбит/сек
Видео
Идентификатор : 224 (0xE0)
Формат : MPEG Video
Версия формата : Version 2
Профиль формата : Main@Main
Параметр BVOP формата : Нет
Параметр матрицы формата : Выборочная
Параметр GOP формата : N=1
Продолжительность : 534 мс.
Вид битрейта : Переменный
Максимальный битрейт : 4587 Кбит/сек
Ширина : 720 пикселей
Высота : 480 пикселей
Соотношение сторон : 4:3
Частота кадров : 29,970 (30000/1001) кадров/сек
Стандарт вещания : NTSC
Цветовое пространство : YUV
Субдискретизация насыщенности : 4:2:0
Битовая глубина : 8 бит
Тип развёртки : Прогрессивная
Порядок развёртки : Верхнее поле первое
Метод сжатия : С потерями
Основные цвета : BT.601 NTSC
Характеристики трансфера : BT.601
Коэффициенты матрицы : BT.601
Текст
Идентификатор : 189 (0xBD)-32 (0x20)
Формат : RLE
Формат/Информация : Run-length encoding
Режим смешивания : DVD-Video
Меню
Общее
Полное имя : C:\Users\Roman\Downloads\VIDEO_TS\VTS_03_1.VOB
Формат : MPEG-PS
Размер файла : 14,0 Кбайт
Продолжительность : 400 мс.
Общий поток : 287 Кбит/сек
Библиотека кодирования : encoded by TMPGEnc (ver. 2.524.63.181)
Видео
Идентификатор : 224 (0xE0)
Формат : MPEG Video
Версия формата : Version 2
Профиль формата : Main@Main
Параметр BVOP формата : Нет
Параметр матрицы формата : По умолчанию
Продолжительность : 400 мс.
Максимальный битрейт : 100,0 Кбит/сек
Ширина : 720 пикселей
Высота : 480 пикселей
Соотношение сторон : 4:3
Частота кадров : 29,970 (30000/1001) кадров/сек
Стандарт вещания : NTSC
Цветовое пространство : YUV
Субдискретизация насыщенности : 4:2:0
Битовая глубина : 8 бит
Тип развёртки : Прогрессивная
Метод сжатия : С потерями
Временной код первого кадра : 00:00:00:00
Оригинал временного кода : Group of pictures header
Библиотека кодирования : TMPGEnc 2.524.63.181
Основные цвета : BT.601 NTSC
Характеристики трансфера : BT.601
Коэффициенты матрицы : BT.601
Меню
Общее
Полное имя : C:\Users\Roman\Downloads\VIDEO_TS\VTS_04_0.BUP
Формат : DVD Video
Профиль формата : Program
Размер файла : 70,0 Кбайт
Продолжительность : 1 ч. 30 м.
Режим общего битрейта : Переменный
Общий поток : 106 бит/сек
Видео
Идентификатор : 224 (0xE0)
Формат : MPEG Video
Версия формата : Version 2
Продолжительность : 1 ч. 30 м.
Вид битрейта : Переменный
Ширина : 720 пикселей
Высота : 480 пикселей
Соотношение сторон : 4:3
Частота кадров : 29,970 (29970/1000) кадров/сек
Стандарт вещания : NTSC
Метод сжатия : С потерями
Аудио #1
Идентификатор : 128 (0x80)
Формат : AC-3
Формат/Информация : Audio Coding 3
Продолжительность : 1 ч. 30 м.
Каналы : 2 канала
Частота : 48,0 КГц
Метод сжатия : С потерями
Язык : English
Аудио #2
Идентификатор : 129 (0x81)
Формат : AC-3
Формат/Информация : Audio Coding 3
Продолжительность : 1 ч. 30 м.
Каналы : 2 канала
Частота : 48,0 КГц
Метод сжатия : С потерями
Язык : Russian
Аудио #3
Идентификатор : 130 (0x82)
Формат : AC-3
Формат/Информация : Audio Coding 3
Продолжительность : 1 ч. 30 м.
Каналы : 2 канала
Частота : 48,0 КГц
Метод сжатия : С потерями
Язык : English
Язык, дополнительно : Director's comments
Текст #1
Идентификатор : 32 (0x20)
Формат : RLE
Формат/Информация : Run-length encoding
Битовая глубина : 2 бит
Язык : English
Текст #2
Идентификатор : 32 (0x20)
Формат : RLE
Формат/Информация : Run-length encoding
Битовая глубина : 2 бит
Язык : Spanish
Язык, дополнительно : Normal
Текст #3
Идентификатор : 32 (0x20)
Формат : RLE
Формат/Информация : Run-length encoding
Битовая глубина : 2 бит
Язык : Spanish
Язык, дополнительно : Normal
Меню
Продолжительность : 1 ч. 30 м.
00:00:00.000 : Chapter 1
00:05:13.466 : Chapter 2
00:08:04.099 : Chapter 3
00:12:56.632 : Chapter 4
00:16:05.565 : Chapter 5
00:19:31.831 : Chapter 6
00:22:11.131 : Chapter 7
00:26:53.497 : Chapter 8
00:30:38.730 : Chapter 9
00:35:39.063 : Chapter 10
00:42:24.429 : Chapter 11
00:49:10.195 : Chapter 12
00:52:56.028 : Chapter 13
00:58:49.361 : Chapter 14
01:03:45.027 : Chapter 15
01:10:17.060 : Chapter 16
01:13:34.993 : Chapter 17
01:16:47.026 : Chapter 18
01:23:12.292 : Chapter 19
01:26:30.825 : Chapter 20
01:30:19.624 : Chapter 21
List (Audio) : 0 / 1 / 2
List (Subtitles 4/3) : 0 / 1 / 2
List (Subtitles Wide) : 0 / 0 / 0
List (Subtitles Letterbox) : 0 / 0 / 0
List (Subtitles Pan&Scan) : 0 / 0 / 0
Общее
Полное имя : C:\Users\Roman\Downloads\VIDEO_TS\VTS_04_0.IFO
Формат : DVD Video
Профиль формата : Program
Размер файла : 70,0 Кбайт
Продолжительность : 1 ч. 30 м.
Режим общего битрейта : Переменный
Общий поток : 106 бит/сек
Видео
Идентификатор : 224 (0xE0)
Формат : MPEG Video
Версия формата : Version 2
Продолжительность : 1 ч. 30 м.
Вид битрейта : Переменный
Ширина : 720 пикселей
Высота : 480 пикселей
Соотношение сторон : 4:3
Частота кадров : 29,970 (29970/1000) кадров/сек
Стандарт вещания : NTSC
Метод сжатия : С потерями
Аудио #1
Идентификатор : 128 (0x80)
Формат : AC-3
Формат/Информация : Audio Coding 3
Продолжительность : 1 ч. 30 м.
Каналы : 2 канала
Частота : 48,0 КГц
Метод сжатия : С потерями
Язык : English
Аудио #2
Идентификатор : 129 (0x81)
Формат : AC-3
Формат/Информация : Audio Coding 3
Продолжительность : 1 ч. 30 м.
Каналы : 2 канала
Частота : 48,0 КГц
Метод сжатия : С потерями
Язык : Russian
Аудио #3
Идентификатор : 130 (0x82)
Формат : AC-3
Формат/Информация : Audio Coding 3
Продолжительность : 1 ч. 30 м.
Каналы : 2 канала
Частота : 48,0 КГц
Метод сжатия : С потерями
Язык : English
Язык, дополнительно : Director's comments
Текст #1
Идентификатор : 32 (0x20)
Формат : RLE
Формат/Информация : Run-length encoding
Битовая глубина : 2 бит
Язык : English
Текст #2
Идентификатор : 32 (0x20)
Формат : RLE
Формат/Информация : Run-length encoding
Битовая глубина : 2 бит
Язык : Spanish
Язык, дополнительно : Normal
Текст #3
Идентификатор : 32 (0x20)
Формат : RLE
Формат/Информация : Run-length encoding
Битовая глубина : 2 бит
Язык : Spanish
Язык, дополнительно : Normal
Меню
Продолжительность : 1 ч. 30 м.
00:00:00.000 : Chapter 1
00:05:13.466 : Chapter 2
00:08:04.099 : Chapter 3
00:12:56.632 : Chapter 4
00:16:05.565 : Chapter 5
00:19:31.831 : Chapter 6
00:22:11.131 : Chapter 7
00:26:53.497 : Chapter 8
00:30:38.730 : Chapter 9
00:35:39.063 : Chapter 10
00:42:24.429 : Chapter 11
00:49:10.195 : Chapter 12
00:52:56.028 : Chapter 13
00:58:49.361 : Chapter 14
01:03:45.027 : Chapter 15
01:10:17.060 : Chapter 16
01:13:34.993 : Chapter 17
01:16:47.026 : Chapter 18
01:23:12.292 : Chapter 19
01:26:30.825 : Chapter 20
01:30:19.624 : Chapter 21
List (Audio) : 0 / 1 / 2
List (Subtitles 4/3) : 0 / 1 / 2
List (Subtitles Wide) : 0 / 0 / 0
List (Subtitles Letterbox) : 0 / 0 / 0
List (Subtitles Pan&Scan) : 0 / 0 / 0
Общее
Полное имя : C:\Users\Roman\Downloads\VIDEO_TS\VTS_04_0.VOB
Формат : MPEG-PS
Размер файла : 7,05 Мбайт
Продолжительность : 1 м. 2 с.
Режим общего битрейта : Переменный
Общий поток : 943 Кбит/сек
Видео
Идентификатор : 224 (0xE0)
Формат : MPEG Video
Версия формата : Version 2
Профиль формата : Main@Main
Параметр BVOP формата : Нет
Параметр матрицы формата : Выборочная
Параметр GOP формата : N=1
Продолжительность : 33 мс.
Вид битрейта : Переменный
Битрейт : 733 Кбит/сек
Максимальный битрейт : 4587 Кбит/сек
Ширина : 720 пикселей
Высота : 480 пикселей
Соотношение сторон : 4:3
Частота кадров : 29,970 (30000/1001) кадров/сек
Стандарт вещания : NTSC
Цветовое пространство : YUV
Субдискретизация насыщенности : 4:2:0
Битовая глубина : 8 бит
Тип развёртки : Прогрессивная
Порядок развёртки : Верхнее поле первое
Метод сжатия : С потерями
Бит/(Пиксели*Кадры) : 0.071
Размер потока : 2,98 Кбайт (0%)
Основные цвета : BT.601 NTSC
Характеристики трансфера : BT.601
Коэффициенты матрицы : BT.601
Аудио
Идентификатор : 189 (0xBD)-128 (0x80)
Формат : AC-3
Формат/Информация : Audio Coding 3
Профиль формата : Dolby Digital
Расширение режима : CM (complete main)
Параметр Endianness формата : Big
Режим смешивания : DVD-Video
Продолжительность : 1 м. 2 с.
Вид битрейта : Постоянный
Битрейт : 192 Кбит/сек
Каналы : 2 канала
Расположение каналов : Front: L R
Частота : 48,0 КГц
Частота кадров : 31,250 кадров/сек (1536 spf)
Метод сжатия : С потерями
Размер потока : 1,43 Мбайт (20%)
Текст
Идентификатор : 189 (0xBD)-32 (0x20)
Формат : RLE
Формат/Информация : Run-length encoding
Режим смешивания : DVD-Video
Меню
Общее
Полное имя : C:\Users\Roman\Downloads\VIDEO_TS\VTS_04_1.VOB
Формат : MPEG-PS
Размер файла : 1024 Мбайт
Продолжительность : 26 м.
Режим общего битрейта : Переменный
Общий поток : 5358 Кбит/сек
Видео
Идентификатор : 224 (0xE0)
Формат : MPEG Video
Версия формата : Version 2
Профиль формата : Main@Main
Параметр BVOP формата : Да
Параметр матрицы формата : Выборочная
Параметр GOP формата : Variable
Структура изображения : Frame
Продолжительность : 26 м.
Вид битрейта : Переменный
Битрейт : 4676 Кбит/сек
Максимальный битрейт : 9800 Кбит/сек
Ширина : 720 пикселей
Высота : 480 пикселей
Соотношение сторон : 4:3
Частота кадров : 29,970 (30000/1001) кадров/сек
Стандарт вещания : Component
Цветовое пространство : YUV
Субдискретизация насыщенности : 4:2:0
Битовая глубина : 8 бит
Тип развёртки : Чересстрочная
Порядок развёртки : Верхнее поле первое
Метод сжатия : С потерями
Бит/(Пиксели*Кадры) : 0.451
Временной код первого кадра : 00:59:59;00
Оригинал временного кода : Group of pictures header
GOP, открыто/закрыто : Открыто
GOP, открыто/закрыто на первом кадре : Закрыто
Размер потока : 894 Мбайт (87%)
Основные цвета : BT.601 NTSC
Характеристики трансфера : BT.601
Коэффициенты матрицы : BT.601
Аудио #1
Идентификатор : 189 (0xBD)-128 (0x80)
Формат : AC-3
Формат/Информация : Audio Coding 3
Расширение режима : CM (complete main)
Параметр Endianness формата : Big
Режим смешивания : DVD-Video
Продолжительность : 26 м.
Вид битрейта : Постоянный
Битрейт : 192 Кбит/сек
Каналы : 2 канала
Расположение каналов : Front: L R
Частота : 48,0 КГц
Частота кадров : 31,250 кадров/сек (1536 spf)
Метод сжатия : С потерями
Размер потока : 36,7 Мбайт (4%)
Аудио #2
Идентификатор : 189 (0xBD)-129 (0x81)
Формат : AC-3
Формат/Информация : Audio Coding 3
Расширение режима : CM (complete main)
Параметр Endianness формата : Big
Режим смешивания : DVD-Video
Продолжительность : 26 м.
Вид битрейта : Постоянный
Битрейт : 192 Кбит/сек
Каналы : 2 канала
Расположение каналов : Front: L R
Частота : 48,0 КГц
Частота кадров : 31,250 кадров/сек (1536 spf)
Метод сжатия : С потерями
Размер потока : 36,7 Мбайт (4%)
Аудио #3
Идентификатор : 189 (0xBD)-130 (0x82)
Формат : AC-3
Формат/Информация : Audio Coding 3
Расширение режима : CM (complete main)
Параметр Endianness формата : Big
Режим смешивания : DVD-Video
Продолжительность : 26 м.
Вид битрейта : Постоянный
Битрейт : 192 Кбит/сек
Каналы : 2 канала
Расположение каналов : Front: L R
Частота : 48,0 КГц
Частота кадров : 31,250 кадров/сек (1536 spf)
Метод сжатия : С потерями
Размер потока : 36,7 Мбайт (4%)
Текст #1
Идентификатор : 189 (0xBD)-32 (0x20)
Формат : RLE
Формат/Информация : Run-length encoding
Режим смешивания : DVD-Video
Продолжительность : 26 м.
Текст #2
Идентификатор : 189 (0xBD)-33 (0x21)
Формат : RLE
Формат/Информация : Run-length encoding
Режим смешивания : DVD-Video
Продолжительность : 26 м.
Текст #3
Идентификатор : 189 (0xBD)-34 (0x22)
Формат : RLE
Формат/Информация : Run-length encoding
Режим смешивания : DVD-Video
Продолжительность : 26 м.
Текст #4
Идентификатор : 224 (0xE0)-CC3
Формат : EIA-608
Режим смешивания, доп. информация : Muxed in Video #1
Продолжительность : 26 м.
Вид битрейта : Постоянный
Размер потока : 0,00 байт (0%)
Меню
Продолжительность : 26 м.
Общее
Полное имя : C:\Users\Roman\Downloads\VIDEO_TS\VTS_04_2.VOB
Формат : MPEG-PS
Размер файла : 1024 Мбайт
Продолжительность : 26 м.
Режим общего битрейта : Переменный
Общий поток : 5316 Кбит/сек
Видео
Идентификатор : 224 (0xE0)
Формат : MPEG Video
Версия формата : Version 2
Профиль формата : Main@Main
Параметр BVOP формата : Да
Параметр матрицы формата : Выборочная
Параметр GOP формата : Variable
Структура изображения : Frame
Продолжительность : 26 м.
Вид битрейта : Переменный
Битрейт : 4634 Кбит/сек
Максимальный битрейт : 9800 Кбит/сек
Ширина : 720 пикселей
Высота : 480 пикселей
Соотношение сторон : 4:3
Частота кадров : 29,970 (30000/1001) кадров/сек
Стандарт вещания : Component
Цветовое пространство : YUV
Субдискретизация насыщенности : 4:2:0
Битовая глубина : 8 бит
Тип развёртки : Чересстрочная
Порядок развёртки : Верхнее поле первое
Метод сжатия : С потерями
Бит/(Пиксели*Кадры) : 0.447
Временной код первого кадра : 01:26:42;15
Оригинал временного кода : Group of pictures header
Размер потока : 892 Мбайт (87%)
Основные цвета : BT.601 NTSC
Характеристики трансфера : BT.601
Коэффициенты матрицы : BT.601
Аудио #1
Идентификатор : 189 (0xBD)-128 (0x80)
Формат : AC-3
Формат/Информация : Audio Coding 3
Расширение режима : CM (complete main)
Параметр Endianness формата : Big
Режим смешивания : DVD-Video
Продолжительность : 26 м.
Вид битрейта : Постоянный
Битрейт : 192 Кбит/сек
Каналы : 2 канала
Расположение каналов : Front: L R
Частота : 48,0 КГц
Частота кадров : 31,250 кадров/сек (1536 spf)
Метод сжатия : С потерями
Задержка видео : -656 мс.
Размер потока : 37,0 Мбайт (4%)
Аудио #2
Идентификатор : 189 (0xBD)-129 (0x81)
Формат : AC-3
Формат/Информация : Audio Coding 3
Расширение режима : CM (complete main)
Параметр Endianness формата : Big
Режим смешивания : DVD-Video
Продолжительность : 26 м.
Вид битрейта : Постоянный
Битрейт : 192 Кбит/сек
Каналы : 2 канала
Расположение каналов : Front: L R
Частота : 48,0 КГц
Частота кадров : 31,250 кадров/сек (1536 spf)
Метод сжатия : С потерями
Задержка видео : -656 мс.
Размер потока : 37,0 Мбайт (4%)
Аудио #3
Идентификатор : 189 (0xBD)-130 (0x82)
Формат : AC-3
Формат/Информация : Audio Coding 3
Расширение режима : CM (complete main)
Параметр Endianness формата : Big
Режим смешивания : DVD-Video
Продолжительность : 26 м.
Вид битрейта : Постоянный
Битрейт : 192 Кбит/сек
Каналы : 2 канала
Расположение каналов : Front: L R
Частота : 48,0 КГц
Частота кадров : 31,250 кадров/сек (1536 spf)
Метод сжатия : С потерями
Задержка видео : -656 мс.
Размер потока : 37,0 Мбайт (4%)
Текст #1
Идентификатор : 189 (0xBD)-32 (0x20)
Формат : RLE
Формат/Информация : Run-length encoding
Режим смешивания : DVD-Video
Продолжительность : 26 м.
Задержка видео : 434 мс.
Текст #2
Идентификатор : 189 (0xBD)-33 (0x21)
Формат : RLE
Формат/Информация : Run-length encoding
Режим смешивания : DVD-Video
Продолжительность : 26 м.
Задержка видео : 434 мс.
Текст #3
Идентификатор : 189 (0xBD)-34 (0x22)
Формат : RLE
Формат/Информация : Run-length encoding
Режим смешивания : DVD-Video
Продолжительность : 26 м.
Задержка видео : 11 с.
Текст #4
Идентификатор : 224 (0xE0)-CC3
Формат : EIA-608
Режим смешивания, доп. информация : Muxed in Video #1
Продолжительность : 26 м.
Вид битрейта : Постоянный
Размер потока : 0,00 байт (0%)
Меню
Продолжительность : 26 м.
Общее
Полное имя : C:\Users\Roman\Downloads\VIDEO_TS\VTS_04_3.VOB
Формат : MPEG-PS
Размер файла : 1024 Мбайт
Продолжительность : 26 м.
Режим общего битрейта : Переменный
Общий поток : 5427 Кбит/сек
Видео
Идентификатор : 224 (0xE0)
Формат : MPEG Video
Версия формата : Version 2
Профиль формата : Main@Main
Параметр BVOP формата : Да
Параметр матрицы формата : Выборочная
Параметр GOP формата : Variable
Структура изображения : Frame
Продолжительность : 26 м.
Вид битрейта : Переменный
Битрейт : 4743 Кбит/сек
Максимальный битрейт : 9800 Кбит/сек
Ширина : 720 пикселей
Высота : 480 пикселей
Соотношение сторон : 4:3
Частота кадров : 29,970 (30000/1001) кадров/сек
Стандарт вещания : Component
Цветовое пространство : YUV
Субдискретизация насыщенности : 4:2:0
Битовая глубина : 8 бит
Тип развёртки : Чересстрочная
Порядок развёртки : Верхнее поле первое
Метод сжатия : С потерями
Бит/(Пиксели*Кадры) : 0.458
Временной код первого кадра : 01:53:38;10
Оригинал временного кода : Group of pictures header
Размер потока : 895 Мбайт (87%)
Основные цвета : BT.601 NTSC
Характеристики трансфера : BT.601
Коэффициенты матрицы : BT.601
Аудио #1
Идентификатор : 189 (0xBD)-128 (0x80)
Формат : AC-3
Формат/Информация : Audio Coding 3
Расширение режима : CM (complete main)
Параметр Endianness формата : Big
Режим смешивания : DVD-Video
Продолжительность : 26 м.
Вид битрейта : Постоянный
Битрейт : 192 Кбит/сек
Каналы : 2 канала
Расположение каналов : Front: L R
Частота : 48,0 КГц
Частота кадров : 31,250 кадров/сек (1536 spf)
Метод сжатия : С потерями
Задержка видео : -536 мс.
Размер потока : 36,2 Мбайт (4%)
Аудио #2
Идентификатор : 189 (0xBD)-129 (0x81)
Формат : AC-3
Формат/Информация : Audio Coding 3
Расширение режима : CM (complete main)
Параметр Endianness формата : Big
Режим смешивания : DVD-Video
Продолжительность : 26 м.
Вид битрейта : Постоянный
Битрейт : 192 Кбит/сек
Каналы : 2 канала
Расположение каналов : Front: L R
Частота : 48,0 КГц
Частота кадров : 31,250 кадров/сек (1536 spf)
Метод сжатия : С потерями
Задержка видео : -536 мс.
Размер потока : 36,2 Мбайт (4%)
Аудио #3
Идентификатор : 189 (0xBD)-130 (0x82)
Формат : AC-3
Формат/Информация : Audio Coding 3
Расширение режима : CM (complete main)
Параметр Endianness формата : Big
Режим смешивания : DVD-Video
Продолжительность : 26 м.
Вид битрейта : Постоянный
Битрейт : 192 Кбит/сек
Каналы : 2 канала
Расположение каналов : Front: L R
Частота : 48,0 КГц
Частота кадров : 31,250 кадров/сек (1536 spf)
Метод сжатия : С потерями
Задержка видео : -536 мс.
Размер потока : 36,2 Мбайт (4%)
Текст #1
Идентификатор : 189 (0xBD)-32 (0x20)
Формат : RLE
Формат/Информация : Run-length encoding
Режим смешивания : DVD-Video
Продолжительность : 26 м.
Задержка видео : 767 мс.
Текст #2
Идентификатор : 189 (0xBD)-33 (0x21)
Формат : RLE
Формат/Информация : Run-length encoding
Режим смешивания : DVD-Video
Продолжительность : 26 м.
Задержка видео : 333 мс.
Текст #3
Идентификатор : 224 (0xE0)-CC3
Формат : EIA-608
Режим смешивания, доп. информация : Muxed in Video #1
Продолжительность : 26 м.
Вид битрейта : Постоянный
Размер потока : 0,00 байт (0%)
Меню
Продолжительность : 26 м.
Общее
Полное имя : C:\Users\Roman\Downloads\VIDEO_TS\VTS_04_4.VOB
Формат : MPEG-PS
Размер файла : 392 Мбайт
Продолжительность : 10 м.
Режим общего битрейта : Переменный
Общий поток : 5278 Кбит/сек
Видео
Идентификатор : 224 (0xE0)
Формат : MPEG Video
Версия формата : Version 2
Профиль формата : Main@Main
Параметр BVOP формата : Да
Параметр матрицы формата : Выборочная
Параметр GOP формата : Variable
Структура изображения : Frame
Продолжительность : 10 м.
Вид битрейта : Переменный
Битрейт : 4597 Кбит/сек
Максимальный битрейт : 9800 Кбит/сек
Ширина : 720 пикселей
Высота : 480 пикселей
Соотношение сторон : 4:3
Частота кадров : 29,970 (30000/1001) кадров/сек
Стандарт вещания : Component
Цветовое пространство : YUV
Субдискретизация насыщенности : 4:2:0
Битовая глубина : 8 бит
Тип развёртки : Чересстрочная
Порядок развёртки : Верхнее поле первое
Метод сжатия : С потерями
Бит/(Пиксели*Кадры) : 0.444
Временной код первого кадра : 02:20:01;03
Оригинал временного кода : Group of pictures header
Размер потока : 332 Мбайт (85%)
Основные цвета : BT.601 NTSC
Характеристики трансфера : BT.601
Коэффициенты матрицы : BT.601
Аудио #1
Идентификатор : 189 (0xBD)-128 (0x80)
Формат : AC-3
Формат/Информация : Audio Coding 3
Расширение режима : CM (complete main)
Параметр Endianness формата : Big
Режим смешивания : DVD-Video
Продолжительность : 10 м.
Вид битрейта : Постоянный
Битрейт : 192 Кбит/сек
Каналы : 2 канала
Расположение каналов : Front: L R
Частота : 48,0 КГц
Частота кадров : 31,250 кадров/сек (1536 spf)
Метод сжатия : С потерями
Задержка видео : -532 мс.
Размер потока : 14,3 Мбайт (4%)
Аудио #2
Идентификатор : 189 (0xBD)-129 (0x81)
Формат : AC-3
Формат/Информация : Audio Coding 3
Расширение режима : CM (complete main)
Параметр Endianness формата : Big
Режим смешивания : DVD-Video
Продолжительность : 10 м.
Вид битрейта : Постоянный
Битрейт : 192 Кбит/сек
Каналы : 2 канала
Расположение каналов : Front: L R
Частота : 48,0 КГц
Частота кадров : 31,250 кадров/сек (1536 spf)
Метод сжатия : С потерями
Задержка видео : -532 мс.
Размер потока : 14,3 Мбайт (4%)
Аудио #3
Идентификатор : 189 (0xBD)-130 (0x82)
Формат : AC-3
Формат/Информация : Audio Coding 3
Расширение режима : CM (complete main)
Параметр Endianness формата : Big
Режим смешивания : DVD-Video
Продолжительность : 10 м.
Вид битрейта : Постоянный
Битрейт : 192 Кбит/сек
Каналы : 2 канала
Расположение каналов : Front: L R
Частота : 48,0 КГц
Частота кадров : 31,250 кадров/сек (1536 spf)
Метод сжатия : С потерями
Задержка видео : -532 мс.
Размер потока : 14,3 Мбайт (4%)
Текст #1
Идентификатор : 189 (0xBD)-32 (0x20)
Формат : RLE
Формат/Информация : Run-length encoding
Режим смешивания : DVD-Video
Продолжительность : 10 м.
Задержка видео : 8 с. 42 мс.
Текст #2
Идентификатор : 189 (0xBD)-33 (0x21)
Формат : RLE
Формат/Информация : Run-length encoding
Режим смешивания : DVD-Video
Продолжительность : 10 м.
Задержка видео : 8 с. 709 мс.
Текст #3
Идентификатор : 224 (0xE0)-CC3
Формат : EIA-608
Режим смешивания, доп. информация : Muxed in Video #1
Продолжительность : 10 м.
Вид битрейта : Постоянный
Размер потока : 0,00 байт (0%)
Меню
Продолжительность : 10 м.
Общее
Полное имя : C:\Users\Roman\Downloads\VIDEO_TS\VTS_05_0.BUP
Формат : DVD Video
Профиль формата : Program
Размер файла : 14,0 Кбайт
Продолжительность : 400 мс.
Режим общего битрейта : Переменный
Общий поток : 287 Кбит/сек
Видео
Идентификатор : 224 (0xE0)
Формат : MPEG Video
Версия формата : Version 2
Продолжительность : 400 мс.
Вид битрейта : Переменный
Ширина : 720 пикселей
Высота : 480 пикселей
Соотношение сторон : 4:3
Частота кадров : 29,970 (29970/1000) кадров/сек
Стандарт вещания : NTSC
Метод сжатия : С потерями
Меню
Продолжительность : 400 мс.
00:00:00.000 : Chapter 1
Общее
Полное имя : C:\Users\Roman\Downloads\VIDEO_TS\VTS_05_0.IFO
Формат : DVD Video
Профиль формата : Program
Размер файла : 14,0 Кбайт
Продолжительность : 400 мс.
Режим общего битрейта : Переменный
Общий поток : 287 Кбит/сек
Видео
Идентификатор : 224 (0xE0)
Формат : MPEG Video
Версия формата : Version 2
Продолжительность : 400 мс.
Вид битрейта : Переменный
Ширина : 720 пикселей
Высота : 480 пикселей
Соотношение сторон : 4:3
Частота кадров : 29,970 (29970/1000) кадров/сек
Стандарт вещания : NTSC
Метод сжатия : С потерями
Меню
Продолжительность : 400 мс.
00:00:00.000 : Chapter 1
Общее
Полное имя : C:\Users\Roman\Downloads\VIDEO_TS\VTS_05_1.VOB
Формат : MPEG-PS
Размер файла : 14,0 Кбайт
Продолжительность : 400 мс.
Общий поток : 287 Кбит/сек
Библиотека кодирования : encoded by TMPGEnc (ver. 2.524.63.181)
Видео
Идентификатор : 224 (0xE0)
Формат : MPEG Video
Версия формата : Version 2
Профиль формата : Main@Main
Параметр BVOP формата : Нет
Параметр матрицы формата : По умолчанию
Продолжительность : 400 мс.
Максимальный битрейт : 100,0 Кбит/сек
Ширина : 720 пикселей
Высота : 480 пикселей
Соотношение сторон : 4:3
Частота кадров : 29,970 (30000/1001) кадров/сек
Стандарт вещания : NTSC
Цветовое пространство : YUV
Субдискретизация насыщенности : 4:2:0
Битовая глубина : 8 бит
Тип развёртки : Прогрессивная
Метод сжатия : С потерями
Временной код первого кадра : 00:00:00:00
Оригинал временного кода : Group of pictures header
Библиотека кодирования : TMPGEnc 2.524.63.181
Основные цвета : BT.601 NTSC
Характеристики трансфера : BT.601
Коэффициенты матрицы : BT.601
Меню
Общее
Полное имя : C:\Users\Roman\Downloads\VIDEO_TS\VTS_06_0.BUP
Формат : DVD Video
Профиль формата : Program
Размер файла : 14,0 Кбайт
Продолжительность : 400 мс.
Режим общего битрейта : Переменный
Общий поток : 287 Кбит/сек
Видео
Идентификатор : 224 (0xE0)
Формат : MPEG Video
Версия формата : Version 2
Продолжительность : 400 мс.
Вид битрейта : Переменный
Ширина : 720 пикселей
Высота : 480 пикселей
Соотношение сторон : 4:3
Частота кадров : 29,970 (29970/1000) кадров/сек
Стандарт вещания : NTSC
Метод сжатия : С потерями
Меню
Продолжительность : 400 мс.
00:00:00.000 : Chapter 1
Общее
Полное имя : C:\Users\Roman\Downloads\VIDEO_TS\VTS_06_0.IFO
Формат : DVD Video
Профиль формата : Program
Размер файла : 14,0 Кбайт
Продолжительность : 400 мс.
Режим общего битрейта : Переменный
Общий поток : 287 Кбит/сек
Видео
Идентификатор : 224 (0xE0)
Формат : MPEG Video
Версия формата : Version 2
Продолжительность : 400 мс.
Вид битрейта : Переменный
Ширина : 720 пикселей
Высота : 480 пикселей
Соотношение сторон : 4:3
Частота кадров : 29,970 (29970/1000) кадров/сек
Стандарт вещания : NTSC
Метод сжатия : С потерями
Меню
Продолжительность : 400 мс.
00:00:00.000 : Chapter 1
Общее
Полное имя : C:\Users\Roman\Downloads\VIDEO_TS\VTS_06_1.VOB
Формат : MPEG-PS
Размер файла : 14,0 Кбайт
Продолжительность : 400 мс.
Общий поток : 287 Кбит/сек
Библиотека кодирования : encoded by TMPGEnc (ver. 2.524.63.181)
Видео
Идентификатор : 224 (0xE0)
Формат : MPEG Video
Версия формата : Version 2
Профиль формата : Main@Main
Параметр BVOP формата : Нет
Параметр матрицы формата : По умолчанию
Продолжительность : 400 мс.
Максимальный битрейт : 100,0 Кбит/сек
Ширина : 720 пикселей
Высота : 480 пикселей
Соотношение сторон : 4:3
Частота кадров : 29,970 (30000/1001) кадров/сек
Стандарт вещания : NTSC
Цветовое пространство : YUV
Субдискретизация насыщенности : 4:2:0
Битовая глубина : 8 бит
Тип развёртки : Прогрессивная
Метод сжатия : С потерями
Временной код первого кадра : 00:00:00:00
Оригинал временного кода : Group of pictures header
Библиотека кодирования : TMPGEnc 2.524.63.181
Основные цвета : BT.601 NTSC
Характеристики трансфера : BT.601
Коэффициенты матрицы : BT.601
Меню
Общее
Полное имя : C:\Users\Roman\Downloads\VIDEO_TS\VTS_07_0.BUP
Формат : DVD Video
Профиль формата : Program
Размер файла : 32,0 Кбайт
Продолжительность : 19 м.
Режим общего битрейта : Переменный
Общий поток : 220 бит/сек
Видео
Идентификатор : 224 (0xE0)
Формат : MPEG Video
Версия формата : Version 2
Продолжительность : 19 м.
Вид битрейта : Переменный
Ширина : 720 пикселей
Высота : 480 пикселей
Соотношение сторон : 4:3
Частота кадров : 29,970 (29970/1000) кадров/сек
Стандарт вещания : NTSC
Метод сжатия : С потерями
Аудио
Идентификатор : 128 (0x80)
Формат : AC-3
Формат/Информация : Audio Coding 3
Продолжительность : 19 м.
Каналы : 2 канала
Частота : 48,0 КГц
Метод сжатия : С потерями
Язык : English
Меню #1
Продолжительность : 19 м.
00:00:00.000 : Chapter 1
00:19:48.566 : Chapter 2
List (Audio) : 0
Меню #2
Продолжительность : 6 м. 2 с.
00:00:00.000 : Chapter 1
00:06:01.966 : Chapter 2
List (Audio) : 0
Общее
Полное имя : C:\Users\Roman\Downloads\VIDEO_TS\VTS_07_0.IFO
Формат : DVD Video
Профиль формата : Program
Размер файла : 32,0 Кбайт
Продолжительность : 19 м.
Режим общего битрейта : Переменный
Общий поток : 220 бит/сек
Видео
Идентификатор : 224 (0xE0)
Формат : MPEG Video
Версия формата : Version 2
Продолжительность : 19 м.
Вид битрейта : Переменный
Ширина : 720 пикселей
Высота : 480 пикселей
Соотношение сторон : 4:3
Частота кадров : 29,970 (29970/1000) кадров/сек
Стандарт вещания : NTSC
Метод сжатия : С потерями
Аудио
Идентификатор : 128 (0x80)
Формат : AC-3
Формат/Информация : Audio Coding 3
Продолжительность : 19 м.
Каналы : 2 канала
Частота : 48,0 КГц
Метод сжатия : С потерями
Язык : English
Меню #1
Продолжительность : 19 м.
00:00:00.000 : Chapter 1
00:19:48.566 : Chapter 2
List (Audio) : 0
Меню #2
Продолжительность : 6 м. 2 с.
00:00:00.000 : Chapter 1
00:06:01.966 : Chapter 2
List (Audio) : 0
Общее
Полное имя : C:\Users\Roman\Downloads\VIDEO_TS\VTS_07_1.VOB
Формат : MPEG-PS
Размер файла : 900 Мбайт
Продолжительность : 6 м. 2 с.
Режим общего битрейта : Переменный
Общий поток : 20,8 Мбит/сек
Видео
Идентификатор : 224 (0xE0)
Формат : MPEG Video
Версия формата : Version 2
Профиль формата : Main@Main
Параметр BVOP формата : Да
Параметр матрицы формата : Выборочная
Параметр GOP формата : Variable
Структура изображения : Frame
Продолжительность : 349 мс.
Вид битрейта : Переменный
Битрейт : 20,2 Мбит/сек
Максимальный битрейт : 9800 Кбит/сек
Ширина : 720 пикселей
Высота : 480 пикселей
Соотношение сторон : 4:3
Частота кадров : 29,970 (30000/1001) кадров/сек
Стандарт вещания : Component
Цветовое пространство : YUV
Субдискретизация насыщенности : 4:2:0
Битовая глубина : 8 бит
Тип развёртки : Чересстрочная
Порядок развёртки : Верхнее поле первое
Метод сжатия : С потерями
Бит/(Пиксели*Кадры) : 1.953
Временной код первого кадра : 00:24:42:13
Оригинал временного кода : Group of pictures header
Размер потока : 824 Кбайт (0%)
Основные цвета : BT.601 NTSC
Характеристики трансфера : BT.601
Коэффициенты матрицы : BT.601
Аудио
Идентификатор : 189 (0xBD)-128 (0x80)
Формат : AC-3
Формат/Информация : Audio Coding 3
Расширение режима : CM (complete main)
Параметр Endianness формата : Big
Режим смешивания : DVD-Video
Продолжительность : 6 м. 2 с.
Вид битрейта : Постоянный
Битрейт : 192 Кбит/сек
Каналы : 2 канала
Расположение каналов : Front: L R
Частота : 48,0 КГц
Частота кадров : 31,250 кадров/сек (1536 spf)
Метод сжатия : С потерями
Размер потока : 8,29 Мбайт (1%)
Меню
Общее
Полное имя : C:\Users\Roman\Downloads\VIDEO_TS\VTS_08_0.BUP
Формат : DVD Video
Профиль формата : Program
Размер файла : 14,0 Кбайт
Продолжительность : 15 с.
Режим общего битрейта : Переменный
Общий поток : 7562 бит/сек
Видео
Идентификатор : 224 (0xE0)
Формат : MPEG Video
Версия формата : Version 2
Продолжительность : 15 с.
Вид битрейта : Переменный
Ширина : 720 пикселей
Высота : 480 пикселей
Соотношение сторон : 4:3
Частота кадров : 29,970 (29970/1000) кадров/сек
Стандарт вещания : NTSC
Метод сжатия : С потерями
Аудио
Идентификатор : 128 (0x80)
Формат : AC-3
Формат/Информация : Audio Coding 3
Продолжительность : 15 с.
Каналы : 6 каналов
Частота : 48,0 КГц
Метод сжатия : С потерями
Язык : English
Меню
Продолжительность : 15 с.
00:00:00.000 : Chapter 1
00:00:14.666 : Chapter 2
List (Audio) : 0
Общее
Полное имя : C:\Users\Roman\Downloads\VIDEO_TS\VTS_08_0.IFO
Формат : DVD Video
Профиль формата : Program
Размер файла : 14,0 Кбайт
Продолжительность : 15 с.
Режим общего битрейта : Переменный
Общий поток : 7562 бит/сек
Видео
Идентификатор : 224 (0xE0)
Формат : MPEG Video
Версия формата : Version 2
Продолжительность : 15 с.
Вид битрейта : Переменный
Ширина : 720 пикселей
Высота : 480 пикселей
Соотношение сторон : 4:3
Частота кадров : 29,970 (29970/1000) кадров/сек
Стандарт вещания : NTSC
Метод сжатия : С потерями
Аудио
Идентификатор : 128 (0x80)
Формат : AC-3
Формат/Информация : Audio Coding 3
Продолжительность : 15 с.
Каналы : 6 каналов
Частота : 48,0 КГц
Метод сжатия : С потерями
Язык : English
Меню
Продолжительность : 15 с.
00:00:00.000 : Chapter 1
00:00:14.666 : Chapter 2
List (Audio) : 0
Общее
Полное имя : C:\Users\Roman\Downloads\VIDEO_TS\VTS_08_1.VOB
Формат : MPEG-PS
Размер файла : 9,31 Мбайт
Продолжительность : 14 с.
Режим общего битрейта : Переменный
Общий поток : 5317 Кбит/сек
Видео
Идентификатор : 224 (0xE0)
Формат : MPEG Video
Версия формата : Version 2
Профиль формата : Main@Main
Параметр BVOP формата : Да
Параметр матрицы формата : Выборочная
Параметр GOP формата : Variable
Продолжительность : 349 мс.
Вид битрейта : Переменный
Битрейт : 4764 Кбит/сек
Максимальный битрейт : 9800 Кбит/сек
Ширина : 720 пикселей
Высота : 480 пикселей
Соотношение сторон : 4:3
Частота кадров : 23,976 (24000/1001) кадра/сек
Стандарт вещания : Component
Цветовое пространство : YUV
Субдискретизация насыщенности : 4:2:0
Битовая глубина : 8 бит
Тип развёртки : Прогрессивная
Порядок развёртки : 2:3 Pulldown
Метод сжатия : С потерями
Бит/(Пиксели*Кадры) : 0.575
Временной код первого кадра : 00:59:58:00
Оригинал временного кода : Group of pictures header
Размер потока : 194 Кбайт (2%)
Основные цвета : BT.601 NTSC
Характеристики трансфера : BT.601
Коэффициенты матрицы : BT.601
Аудио
Идентификатор : 189 (0xBD)-128 (0x80)
Формат : AC-3
Формат/Информация : Audio Coding 3
Расширение режима : CM (complete main)
Параметр Endianness формата : Big
Режим смешивания : DVD-Video
Продолжительность : 14 с.
Вид битрейта : Постоянный
Битрейт : 448 Кбит/сек
Каналы : 6 каналов
Расположение каналов : Front: L C R, Side: L R, LFE
Частота : 48,0 КГц
Частота кадров : 31,250 кадров/сек (1536 spf)
Метод сжатия : С потерями
Размер потока : 803 Кбайт (8%)
Меню

Скриншот c названием фильма

Скриншоты



cd Рип дополнительно залит на ОБЛАКО cd2


Last edited by CROM@G on 2016-08-05 23:18; edited 1 time in total
[Profile] [PM]

CROM@G ®

Gender: Male

Longevity: 4 years 10 months

Posts: 3335

Location: Прибалтика

Post 05-Aug-2016 22:35 (after 3 minutes)

[Quote]

На ночь железку выключаю Засада В сидах так и нет
[Profile] [PM]

$Shorox

Gender: Male

Longevity: 7 years 7 months

Posts: 1887

Post 05-Aug-2016 23:17 (after 41 minute)

[Quote]

croMAG,
Когда скачаю, то перезалью торрент-файл. По другому назову.
[Profile] [PM]

CROM@G ®

Gender: Male

Longevity: 4 years 10 months

Posts: 3335

Location: Прибалтика

Post 05-Aug-2016 23:19 (after 2 minutes)

[Quote]

$Shorox, Я уже перезалил И не скачаешь В сидах меня нет Не знаю почему Гы ЫЫЫЫ кто то тянет woodpecker
[Profile] [PM]

CROM@G ®

Gender: Male

Longevity: 4 years 10 months

Posts: 3335

Location: Прибалтика

Post 05-Aug-2016 23:27 (after 7 minutes)

[Quote]

Это что ??Движок трекера такой хмммм пиздатый ??? bg Хз но раздается вроде
[Profile] [PM]

admin

Gender: Male

Longevity: 7 years 11 months

Posts: 4797

Post 05-Aug-2016 23:58 (after 31 minute)

[Quote]

Хрень с торрента лишнюю удали - тогда может и покажешься в сидах смайлик+
[Profile] [PM]

CROM@G ®

Gender: Male

Longevity: 4 years 10 months

Posts: 3335

Location: Прибалтика

Post 06-Aug-2016 00:03 (after 4 minutes)

[Quote]

admin, Каку таку лишнюю хрень ?
[Profile] [PM]

admin

Gender: Male

Longevity: 7 years 11 months

Posts: 4797

Post 06-Aug-2016 00:05 (after 2 minutes)

[Quote]

трекер.опенбитторент сом и т.д.
Когда раздачу делал. на кнопку "Скачать торрент" нажимал?
[Profile] [PM]

CROM@G ®

Gender: Male

Longevity: 4 years 10 months

Posts: 3335

Location: Прибалтика

Post 06-Aug-2016 00:08 (after 2 minutes)

[Quote]

Удалил Ща спать пойду Утром дораздам
[Profile] [PM]

CROM@G ®

Gender: Male

Longevity: 4 years 10 months

Posts: 3335

Location: Прибалтика

Post 06-Aug-2016 06:07 (after 5 hours)

[Quote]

Когда раздачу делал. на кнопку "Скачать торрент" нажимал?
Ну еееее Вы уже меня совсем за идиота держите смайлик-
[Profile] [PM]

kandid

Gender: Male

Longevity: 4 years 4 months

Posts: 24

Location: Москва

Post 13-Aug-2016 12:10 (after 7 days)

[Quote]

Может, на рутреккер выложите? Оттуда быстрее будем качать. az
[Profile] [PM]

CROM@G ®

Gender: Male

Longevity: 4 years 10 months

Posts: 3335

Location: Прибалтика

Post 13-Aug-2016 12:15 (after 4 minutes)

[Quote]

kandid, Оооо Нееее Мишка На меня админы столька гавна вылили Ни за какие ковриги Качай с облака


Last edited by CROM@G on 2016-08-13 12:16; edited 1 time in total
[Profile] [PM]

$Shorox

Gender: Male

Longevity: 7 years 7 months

Posts: 1887

Post 13-Aug-2016 12:15 (after 13 seconds)

[Quote]

kandid,
Есть "Рип дополнительно залит на ОБЛАКО". Оттуда и качайте.
[Profile] [PM]

kandid

Gender: Male

Longevity: 4 years 4 months

Posts: 24

Location: Москва

Post 13-Aug-2016 12:54 (after 38 minutes)

[Quote]

При попытке скачать, Mail.ru пишет: "выбрано слишком много файлов, максимальный суммарный размер не может превышать 4 Гб". Там 4,33 Гб.
Может стоит заливать на облако сжатую папку RAR. Тогда они будут считать ее одним файлом?
[Profile] [PM]

admin

Gender: Male

Longevity: 7 years 11 months

Posts: 4797

Post 13-Aug-2016 12:59 (after 5 minutes)

[Quote]

А шо мешает выбрать меньше файлов и остальное скачать в другой вкладке браузера? смайлик+
Или подать всё на блюдечке? Здесь же херово качается, залейте на рутрекер, где все мозги выипут с оформлениес раздачи?
Народ, вы же совсем того?
[Profile] [PM]

$Shorox

Gender: Male

Longevity: 7 years 7 months

Posts: 1887

Post 13-Aug-2016 13:06 (after 6 minutes)

[Quote]

kandid,
Зайдите в папку VIDEO. Понажимайте все файлы поочерёдности и в одну папку скачайте.
[Profile] [PM]

kandid

Gender: Male

Longevity: 4 years 4 months

Posts: 24

Location: Москва

Post 13-Aug-2016 16:25 (after 3 hours)

[Quote]

Спасибо, $Shorox, просто с облака первый раз качаю, не знал, что там такой геморой. А если, все-таки, попробовать выкладывать туда сжатую папку в RAR?
Или у Mail.ru это не прокатит?
[Profile] [PM]

CROM@G ®

Gender: Male

Longevity: 4 years 10 months

Posts: 3335

Location: Прибалтика

Post 13-Aug-2016 16:53 (after 28 minutes)

[Quote]

kandid, Ммм такой геморр почему то тока у тебя У меня например есть глюк непонятный когда здесь раздачи делаю
[Profile] [PM]

$Shorox

Gender: Male

Longevity: 7 years 7 months

Posts: 1887

Post 13-Aug-2016 17:50 (after 56 minutes)

[Quote]

kandid,
Если фильм большой размером, например BDRip, то его заливают в многотомном архиве. DVD кусками скачивайте. При нормальном интернете 5-10 минут.
Там нет геммороя, всё на высокой скорости и без проблем.
[Profile] [PM]
Display posts:    
Reply to topic

Current time is: 05-Aug 02:03

All times are UTC + 3



You cannot post new topics in this forum
You cannot reply to topics in this forum
You cannot edit your posts in this forum
You cannot delete your posts in this forum
You cannot vote in polls in this forum
You cannot attach files in this forum
You cannot download files in this forum