Защитники Дайнатрон Сити / Defenders of Dynatron City (Чак Паттон) [1992, США, фантастика, VHSRip] [Пилотный выпуск] АО (Трамвай фильм)

Ответить на тему
Статистика раздачи
Размер:  300 MB   |    Зарегистрирован:  2 года 2 месяца   |    Скачан:  5 раз

Полного источника не было: 12 дней

 
   
 
 
 
Автор Сообщение

Трамвай-фильм ®

Пол: Мужской

Стаж: 4 года 2 месяца

Сообщений: 1315

Откуда: Россия

Создавать темы 02-Авг-2016 22:04

[Цитировать]

Защитники Дайнатрон Сити / Defenders of Dynatron City / Пилотный выпуск
Страна: США
Жанр: фантастика
Год выпуска: 1992
Продолжительность: 00:22:12
Перевод: Авторский (одноголосый) Трамвай фильм
Режиссер: Чак Паттон
Описание: Пилотный выпуск несостоявшегося мультсериала о крутой команде радиоактивных мутантов, которые сражаются со злым гением доктором Мейхемом.
Доп. информация: Сделано по комиксам, ни много ни мало студией Лукас Арт!
Качество видео: VHSRip
Формат видео: AVI
Видео: Xvid, 640x480, 29.97fps, 1 677 Kbps
Аудио: MP3, 44100Hz, stereo, 128 kbps, 2 канала

MediaInfo

Format : AVI
Format/Info : Audio Video Interleave
File size : 300 MiB
Duration : 22mn 11s
Overall bit rate : 1 889 Kbps
Video
ID : 0
Format : MPEG-4 Visual
Codec ID : XVID
Codec ID/Hint : XviD
Duration : 22mn 11s
Bit rate : 1 677 Kbps
Width : 640 pixels
Height : 480 pixels
Display aspect ratio : 4:3
Frame rate : 29.970 fps
Color space : YUV
Chroma subsampling : 4:2:0
Compression mode : Lossy
Bits/(Pixel*Frame) : 0.182
Stream size : 266 MiB (89%)
Audio
ID : 1
Format : MPEG Audio
Codec ID : 55
Codec ID/Hint : MP3
Duration : 22mn 11s
Bit rate : 128 Kbps
Channel(s) : 2 channels
Sampling rate : 44.1 KHz
Compression mode : Lossy
Stream size : 20.3 MiB (7%)
Alignment : Aligned on interleaves

Скриншоты




cd Рип дополнительно залит на ОБЛАКО cd2
Defenders.of.Dynatron.City.torrent
Торрент: Зарегистрирован [ 2016-08-02 22:04 ]

Скачать .torrent

Скачать

12 KB

Статус: проверено
Скачан: 5 раз
Размер: 300 MB
 


Последний раз редактировалось: Трамвай-фильм (2017-11-04 19:10), всего редактировалось 1 раз
[Профиль] [ЛС]

Трамвай-фильм ®

Пол: Мужской

Стаж: 4 года 2 месяца

Сообщений: 1315

Откуда: Россия

Создавать темы 02-Авг-2016 22:05 (спустя 56 секунд)

[Цитировать]

Надо же открыть что-то в этой категории раздач.
[Профиль] [ЛС]
Быстрый ответ

Имя:

            
Для отправки сообщений необходимо включить JavaScript
Показать сообщения:    
Ответить на тему

Текущее время: 20-Окт 12:44

Часовой пояс: UTC + 3:30



Вы можете начинать темы
Вы можете отвечать на сообщения
Вы можете редактировать свои сообщения
Вы не можете удалять свои сообщения
Вы не можете голосовать в опросах
Вы можете прикреплять файлы к сообщениям
Вы можете скачивать файлы