Защитники Дайнатрон Сити / Defenders of Dynatron City (Чак Паттон) [1992, США, фантастика, VHSRip] [Пилотный выпуск] АО (Трамвай фильм)

Reply to topic
DL-List and Torrent activity
Size:  300 MB   |    Registered:  2 years 8 months   |    Completed:  6 times

Seeder not seen: 3 months 21 day

 
   
 
 
 
Author Message

Трамвай-фильм ®

Gender: Male

Longevity: 4 years 8 months

Posts: 1438

Location: Россия

Post 02-Aug-2016 22:04

[Quote]

Защитники Дайнатрон Сити / Defenders of Dynatron City / Пилотный выпуск
Страна: США
Жанр: фантастика
Год выпуска: 1992
Продолжительность: 00:22:12
Перевод: Авторский (одноголосый) Трамвай фильм
Режиссер: Чак Паттон
Описание: Пилотный выпуск несостоявшегося мультсериала о крутой команде радиоактивных мутантов, которые сражаются со злым гением доктором Мейхемом.
Доп. информация: Сделано по комиксам, ни много ни мало студией Лукас Арт!
Качество видео: VHSRip
Формат видео: AVI
Видео: Xvid, 640x480, 29.97fps, 1 677 Kbps
Аудио: MP3, 44100Hz, stereo, 128 kbps, 2 канала

MediaInfo

Format : AVI
Format/Info : Audio Video Interleave
File size : 300 MiB
Duration : 22mn 11s
Overall bit rate : 1 889 Kbps
Video
ID : 0
Format : MPEG-4 Visual
Codec ID : XVID
Codec ID/Hint : XviD
Duration : 22mn 11s
Bit rate : 1 677 Kbps
Width : 640 pixels
Height : 480 pixels
Display aspect ratio : 4:3
Frame rate : 29.970 fps
Color space : YUV
Chroma subsampling : 4:2:0
Compression mode : Lossy
Bits/(Pixel*Frame) : 0.182
Stream size : 266 MiB (89%)
Audio
ID : 1
Format : MPEG Audio
Codec ID : 55
Codec ID/Hint : MP3
Duration : 22mn 11s
Bit rate : 128 Kbps
Channel(s) : 2 channels
Sampling rate : 44.1 KHz
Compression mode : Lossy
Stream size : 20.3 MiB (7%)
Alignment : Aligned on interleaves

Скриншоты




cd Рип дополнительно залит на ОБЛАКО cd2
Defenders.of.Dynatron.City.torrent
Torrent: Registered [ 2016-08-02 22:04 ]

Download .torrent

Download

12 KB

Status: checked
Completed: 6 times
Size: 300 MB
 


Last edited by Трамвай-фильм on 2017-11-04 19:10; edited 1 time in total
[Profile] [PM]

Трамвай-фильм ®

Gender: Male

Longevity: 4 years 8 months

Posts: 1438

Location: Россия

Post 02-Aug-2016 22:05 (after 56 seconds)

[Quote]

Надо же открыть что-то в этой категории раздач.
[Profile] [PM]
Quick Reply

Name:

            
Heads necessary to send messages to enable JavaScript
Display posts:    
Reply to topic

Current time is: 26-Apr 15:58

All times are UTC + 3.5



You can post new topics in this forum
You can reply to topics in this forum
You can edit your posts in this forum
You cannot delete your posts in this forum
You cannot vote in polls in this forum
You can attach files in this forum
You can download files in this forum