Не с этой планеты / Not of This Earth (Роджер Корман / Roger Corman) [1957 г., Фантастика, ужасы, DVDRip-AVC] ЛО (Андрей Бессонов), СТ (MarfenaRus`N`VampirO)

Reply to topic
 
Author Message

admin ®

Gender: Male

Longevity: 7 years 2 months

Posts: 4721

Post 25-Sep-2012 01:56

[Quote]

Не с этой планеты / Not of This Earth
Год выпуска: 1957
Страна: США, Los Altos Productions
Жанр: Фантастика, ужасы
Продолжительность: 01:04:22
Перевод: Любительский (одноголосый) Андрей Бессонов
Режиссер: Роджер Корман / Roger Corman
В ролях: Пол Бирч, Беверли Гарлэнд, Морган Джонс, Уильям Рорик, Джонатан Хэйз, Дик Миллер, Анна Ли Кэрролл, Пэт Флинн, Барбара Борер, Рой Энджел
Описание: Инопланетянин с планеты Дована, находящейся в другой Галактике, послан на Землю посредством высокотехнологичного транспортера. Здесь он начинает терроризировать жителей южной Калифорнии в попытках достать кровь для своей умирающей после опустошающей ядерной войны расы…
Римейки и оригинал данного фильма
1 Not of This Earth 1957
2 Not of This Earth 1988
3 Not of This Earth 1995
4 Star Portal / Not of this Earth II: Final Contact 1997
Качество: DVDRip
Формат: MKV
Видео: x264, 1273 Кбит/с, 720х552 crf=24
Аудио 1: Русский (AC3, 2 ch, 192 Кбит/с)
Аудио 2: Английский (AC3, 2 ch, 192 Кбит/с)
Аудио 3: Немецкий (AC3, 2 ch, 192 Кбит/с)
Аудио 4: Английский (Coment) (AC3, 2 ch, 192 Кбит/с)
Субтитры : Русские (MarfenaRus`N`VampirO)
Работа над релизом:
Рип с немецкого DVD9 - kosmoaelita
Перевод-субтитры: MarfenaRus`N`VampirO
Озвучивание: Андрей Бессонов



Пример озвучки от Бессонова

Дополнительно

Звуковые дорожки:
1 Русский одноголосый (Андрей Бессонов)
2 Анлийский
3 Немецкий
4 Английский (закадровые комментарии)

Рецензия

Инопланетянин с планеты Дована, находящейся в другой Галактике, послан на Землю посредством высокотехнологичного транспортера. Здесь он начинает терроризировать обыкновенных жителей Калифорнии в попытках достать человеческую кровь для своей умирающей после опустошающей ядерной войны расы. Кто сможет остановить кровожадного пришельца?…
На удивление приличный фильм. Его даже можно один раз посмотреть. Впоследствии было снято целых два ремейка: в 1988 и 1995 годах. Картина вышла в прокат вместе с фильмом «Нападение крабов-монстров» (1957). Бюджет фильма составил 100 тысяч долларов. Оценка 2 балла.

MediaInfo

Общее
Уникальный идентификатор : 214786731036186337458353527573873010285 (0xA1966B7131D703E5A7C35F887689A66D)
Полное имя : E:\Nje.s.etoj.planety.1957.x264.DVDRip.sasha200720.mkv
Формат : Matroska
Версия формата : Version 2
Размер файла : 974 Мбайт
Продолжительность : 1 ч. 4 м.
Общий поток : 2115 Кбит/сек
Название фильма : Not of This Earth / 1957 / Не с єтой планеті / by sasha200720
Дата кодирования : UTC 2012-03-28 15:40:28
Программа кодирования : mkvmerge v5.4.0 ('Piper') built on Mar 18 2012 18:22:43
Библиотека кодирования : libebml v1.2.3 + libmatroska v1.3.0
Видео
Идентификатор : 1
Формат : AVC
Формат/Информация : Advanced Video Codec
Профиль формата : High@L4.1
Параметр CABAC формата : Да
Параметр ReFrames формата : 8 кадров
Идентификатор кодека : V_MPEG4/ISO/AVC
Битрейт : 1273 Кбит/сек
Ширина : 720 пикселей
Высота : 552 пикселя
Соотношение сторон : 4:3
Режим частоты кадров : Переменный
Частота кадров в оригинале : 25,000 кадров/сек
Цветовое пространство : YUV
Субдискретизация насыщенности : 4:2:0
Битовая глубина : 8 бит
Тип развёртки : Прогрессивная
Заголовок : Engl
Библиотека кодирования : x264 core 120 r2164 da19765
Настройки программы : cabac=1 / ref=8 / deblock=1:-3:-2 / analyse=0x3:0x133 / me=umh / subme=11 / psy=1 / psy_rd=0.93:0.06 / mixed_ref=1 / me_range=24 / chroma_me=1 / trellis=2 / 8x8dct=1 / cqm=0 / deadzone=6,6 / fast_pskip=1 / chroma_qp_offset=-3 / threads=12 / sliced_threads=0 / nr=0 / decimate=0 / interlaced=0 / bluray_compat=0 / constrained_intra=0 / bframes=8 / b_pyramid=2 / b_adapt=2 / b_bias=0 / direct=3 / weightb=1 / open_gop=0 / weightp=2 / keyint=220 / keyint_min=22 / scenecut=40 / intra_refresh=0 / rc_lookahead=60 / rc=crf / mbtree=1 / crf=24.0 / qcomp=0.80 / qpmin=0 / qpmax=69 / qpstep=4 / vbv_maxrate=17500 / vbv_bufsize=14000 / crf_max=0.0 / nal_hrd=none / ip_ratio=1.17 / aq=1:0.60
Default : Да
Forced : Нет
Аудио #1
Идентификатор : 2
Формат : AC-3
Формат/Информация : Audio Coding 3
Расширение режима : CM (complete main)
Параметр Endianness формата : Big
Идентификатор кодека : A_AC3
Продолжительность : 1 ч. 4 м.
Вид битрейта : Постоянный
Битрейт : 192 Кбит/сек
Каналы : 2 канала
Расположение каналов : Front: L R
Частота : 48,0 КГц
Битовая глубина : 16 бит
Метод сжатия : С потерями
Размер потока : 88,4 Мбайт (9%)
Заголовок : Русский (Андрей Бессонов)
Язык : Russian
Default : Да
Forced : Нет
Аудио #2
Идентификатор : 3
Формат : AC-3
Формат/Информация : Audio Coding 3
Расширение режима : CM (complete main)
Параметр Endianness формата : Big
Идентификатор кодека : A_AC3
Продолжительность : 1 ч. 4 м.
Вид битрейта : Постоянный
Битрейт : 192 Кбит/сек
Каналы : 2 канала
Расположение каналов : Front: L R
Частота : 48,0 КГц
Битовая глубина : 16 бит
Метод сжатия : С потерями
Размер потока : 88,4 Мбайт (9%)
Заголовок : Engl
Язык : English
Default : Нет
Forced : Нет
Аудио #3
Идентификатор : 4
Формат : AC-3
Формат/Информация : Audio Coding 3
Расширение режима : CM (complete main)
Параметр Endianness формата : Big
Идентификатор кодека : A_AC3
Продолжительность : 1 ч. 4 м.
Вид битрейта : Постоянный
Битрейт : 224 Кбит/сек
Каналы : 2 канала
Расположение каналов : Front: L R
Частота : 48,0 КГц
Битовая глубина : 16 бит
Метод сжатия : С потерями
Размер потока : 103 Мбайт (11%)
Заголовок : Deutch
Язык : German
Default : Нет
Forced : Нет
Аудио #4
Идентификатор : 5
Формат : AC-3
Формат/Информация : Audio Coding 3
Расширение режима : CM (complete main)
Параметр Endianness формата : Big
Идентификатор кодека : A_AC3
Продолжительность : 1 ч. 4 м.
Вид битрейта : Постоянный
Битрейт : 192 Кбит/сек
Каналы : 2 канала
Расположение каналов : Front: L R
Частота : 48,0 КГц
Битовая глубина : 16 бит
Метод сжатия : С потерями
Размер потока : 88,4 Мбайт (9%)
Заголовок : Engl Comment
Язык : English
Default : Нет
Forced : Нет
Текст #1
Идентификатор : 6
Формат : VobSub
Идентификатор кодека : S_VOBSUB
Идентификатор кодека/Информация : The same subtitle format used on DVDs
Заголовок : Русский VobSub (VampirO (c)
Язык : Russian
Default : Да
Forced : Да
Текст #2
Идентификатор : 7
Формат : UTF-8
Идентификатор кодека : S_TEXT/UTF8
Идентификатор кодека/Информация : UTF-8 Plain Text
Заголовок : Русский srt(VampirO (c), апрель 2011
Язык : Russian
Default : Нет
Forced : Нет
Меню
00:00:00.000 : :Chapter 01
00:00:01.200 : :Chapter 02
00:00:49.200 : :Chapter 03
00:14:02.400 : :Chapter 04
00:20:57.600 : :Chapter 05
00:45:17.400 : :Chapter 06
00:55:19.800 : :Chapter 07
01:03:32.400 : :Chapter 08

Скриншоты


Скринлист

Файл дополнительно залит на ОБЛАКО
[Profile] [PM]
Quick Reply

Name:

            
Heads necessary to send messages to enable JavaScript
Display posts:    
Reply to topic

Current time is: 22-Nov 10:51

All times are UTC + 3



You cannot post new topics in this forum
You can reply to topics in this forum
You cannot edit your posts in this forum
You cannot delete your posts in this forum
You cannot vote in polls in this forum
You cannot attach files in this forum
You cannot download files in this forum