Чужие среди нас / Инопланетные мстители 2 / Aliens Among Us / Alien Avengers II (Дэйв Пэйн / Dave Payne) [1998, США, Фантастика. комедия, VHSRip] АО (А.Багичев)

Reply to topic
 
Author Message

admin ®

Gender: Male

Longevity: 6 years 8 months

Posts: 4725

Location: Україна

Post 03-Jul-2016 11:04

[Quote]

Чужие среди нас / Инопланетные мстители 2 / Aliens Among Us / Alien Avengers II
Страна: США, Concorde-New Horizons, Showtime Networks Inc., Transpacific Corp.
Жанр: Фантастика. комедия
Год выпуска: 1998
Продолжительность: 01:27:29
Перевод: Авторский (одноголосый) А.Багичев
Режиссер: Дэйв Пэйн / Dave Payne
В ролях: George Wendt ... Charlie
Julie Brown ... Rhonda
Anastasia Sakelaris ... Daphne
Christopher M. Brown ... Joseph
Natalie Canerday ... Rita
Todd C. Mooney ... Jack Baranca
Wayne Grace ... Carl Dalton
Patrick Cranshaw ... Judge Gorman
Ken Magee ... Don
Bernadette Birkett ... Shirley
Jason Sudeikis ... Chester
Luis Contreras ... Morcho
Christopher Boyer ... Jasper
Michael Todd Curry ... Flashy Man
Robert Peters ... Deputy Sheriff
Jack Betts ... Elder
Jim Cody Williams ... Rancher Sid
David St. James ... Warden
Matt Geraldi ... G-Man
Описание: A few of you may have heard about (or even seen) the 1996 Roger Corman production Welcome to Planet Earth (aka Alien Avengers), wherein George "Norm Peterson" Wendt and Shanna Reed starred as extra-terrestrial visitors who found a new hobby on Earth: killing scum. And although we could surely use them today, they only returned one more time--on the small screen, sadly--in 1998 for a sequel. ALIENS AMONG US (aka ALIEN AVENGERS II) gives Mr. Wendt a chance to chew up the scenery again, this time accompanied by (Not Downtown) Julie Brown as his wifey. Anastasia Sakelaris reprises her role as the alien couple's sex-starved daughter, and Mr. Christopher Brown (who is no relation to either Not Downtown Julie Brown or the actual Downtown Julie Brown, as I'm sure you'll notice) also returns as the human hubby of the alien offspring.
For this follow-up feature, Wendt and Brown--having been released for the mass murder of thugs and lowlifes--venture to an Arizona western-style town where the locals are blaming a series of livestock mutilations on, well, aliens. Of course, our vigilante visitors know better than to believe that crap--and the local yokels are about to learn how to behave once they take over as the community's law enforcement agents!

Релиз

Качество: VHSRip
Формат: MKV
Видео: x264, 1796 кбит/с, 704x532, 23.976 к/с, crf=21
Аудио 1: Русский (AC3, 2 ch, 192 Кбит/с)
Аудио 2: Английский (AC3, 2 ch, 256 Кбит/с)
Работа над релизом:
Релиз kosmoaelita.
Рип с VHSDVD c синемагеддона - kosmoaelita.
Авторский перевод по заказу kosmoaelita - А.Багичев



Пример русского перевода

Дополнительно

рейтинг MPAA рейтинг R лицам до 17 лет обязательно присутствие взрослого
Also Known As (AKA)
Aliens Among Us
Roger Corman Presents 'Alien Avengers II'
(video title) Welcome to Planet Earth II
Poland Kosmici sa wsród nas
Формат копии: 35 mm
Формат съёмок: 35 mm
Изображение: цветное
Язык: английский

Отзывы

MediaInfo

Общее
Уникальный идентификатор : 215503649954212783862973775681887360323 (0xA2207E4619DAFC28992072A87BE75543)
Полное имя : F:\Aliens Among Us aka Alien Avengers II 1998.x264.VHSRip.Rus.kosmoaelita.mkv
Формат : Matroska
Версия формата : Version 4 / Version 2
Размер файла : 1,41 Гбайт
Продолжительность : 1 ч. 27 м.
Общий поток : 2315 Кбит/сек
Название фильма : ALIENS AMONG US / 1998 / rip from NTSC VHSDVD5 by sasha20072007 (kosmoaelita) (2016-06-06), crf=21.16
Дата кодирования : UTC 2016-07-03 07:54:16
Программа кодирования : mkvmerge v6.6.0 ('The Edge Of The In Between') built on Dec 1 2013 17:55:00
Библиотека кодирования : libebml v1.3.0 + libmatroska v1.4.1
Attachments : poster.jpg / ALIENS_AMONG_US.mkv.encoding.log
Видео
Идентификатор : 1
Формат : AVC
Формат/Информация : Advanced Video Codec
Профиль формата : High@L4.1
Параметр CABAC формата : Да
Параметр ReFrames формата : 8 кадров
Идентификатор кодека : V_MPEG4/ISO/AVC
Продолжительность : 1 ч. 27 м.
Битрейт : 1796 Кбит/сек
Ширина : 704 пикселя
Высота : 532 пикселя
Соотношение сторон : 4:3
Режим частоты кадров : Постоянный
Частота кадров : 23,976 (24000/1001) кадра/сек
Цветовое пространство : YUV
Субдискретизация насыщенности : 4:2:0
Битовая глубина : 8 бит
Тип развёртки : Прогрессивная
Бит/(Пиксели*Кадры) : 0.200
Размер потока : 1,07 Гбайт (76%)
Заголовок : kosmoaelita
Библиотека кодирования : x264 core 130 r2273 b3065e6
Настройки программы : cabac=1 / ref=8 / deblock=1:-1:-1 / analyse=0x3:0x133 / me=umh / subme=11 / psy=1 / psy_rd=0.99:0.14 / mixed_ref=1 / me_range=24 / chroma_me=1 / trellis=2 / 8x8dct=1 / cqm=0 / deadzone=21,11 / fast_pskip=1 / chroma_qp_offset=-3 / threads=6 / lookahead_threads=1 / sliced_threads=0 / nr=0 / decimate=1 / interlaced=0 / bluray_compat=0 / constrained_intra=0 / bframes=8 / b_pyramid=2 / b_adapt=2 / b_bias=0 / direct=3 / weightb=1 / open_gop=0 / weightp=2 / keyint=210 / keyint_min=21 / scenecut=40 / intra_refresh=0 / rc_lookahead=80 / rc=2pass / mbtree=1 / bitrate=1796 / ratetol=1.0 / qcomp=0.65 / qpmin=0 / qpmax=69 / qpstep=4 / cplxblur=20.0 / qblur=0.5 / ip_ratio=1.25 / aq=1:0.90
Default : Да
Forced : Нет
Цветовой диапазон : Limited
Основные цвета : BT.601 NTSC
Характеристики трансфера : BT.601
Коэффициенты матрицы : BT.601
Statistics Tags Issue : mkvmerge v7.8.0 ('River Man') 32bit built on Mar 27 2015 16:18:02 2016-06-05 22:57:25 / mkvmerge v6.6.0 ('The Edge Of The In Between') built on Dec 1 2013 17:55:00 2016-07-03 07:54:16
FromStats_BitRate : 1796266
FromStats_Duration : 01:27:28.744000000
FromStats_FrameCount : 125844
FromStats_StreamSize : 1178517936
Аудио #1
Идентификатор : 2
Формат : AC-3
Формат/Информация : Audio Coding 3
Расширение режима : CM (complete main)
Параметр Endianness формата : Big
Идентификатор кодека : A_AC3
Продолжительность : 1 ч. 27 м.
Вид битрейта : Постоянный
Битрейт : 192 Кбит/сек
Каналы : 2 канала
Расположение каналов : Front: L R
Частота : 48,0 КГц
Частота кадров : 31,250 кадров/сек (1536 spf)
Метод сжатия : С потерями
Размер потока : 160 Мбайт (11%)
Заголовок : Русский АО (А.Багичев) для kosmoaelita.com
Язык : Russian
Default : Да
Forced : Нет
Аудио #2
Идентификатор : 3
Формат : AC-3
Формат/Информация : Audio Coding 3
Расширение режима : CM (complete main)
Параметр Endianness формата : Big
Идентификатор кодека : A_AC3
Продолжительность : 1 ч. 27 м.
Вид битрейта : Постоянный
Битрейт : 256 Кбит/сек
Каналы : 2 канала
Расположение каналов : Front: L R
Частота : 48,0 КГц
Частота кадров : 31,250 кадров/сек (1536 spf)
Метод сжатия : С потерями
Размер потока : 160 Мбайт (11%)
Язык : English
Default : Нет
Forced : Нет
Statistics Tags Issue : mkvmerge v7.8.0 ('River Man') 32bit built on Mar 27 2015 16:18:02 2016-06-05 22:57:25 / mkvmerge v6.6.0 ('The Edge Of The In Between') built on Dec 1 2013 17:55:00 2016-07-03 07:54:16
FromStats_BitRate : 256000
FromStats_Duration : 01:27:28.768000000
FromStats_FrameCount : 164024
FromStats_StreamSize : 167960576
Меню
00:10:00.466 : en:00:10:00.466
00:20:00.066 : en:00:20:00.066
00:30:00.165 : en:00:30:00.165
00:40:00.265 : en:00:40:00.265
00:49:44.348 : en:00:49:44.348
00:50:00.364 : en:00:50:00.364
01:00:00.463 : en:01:00:00.463
01:10:00.062 : en:01:10:00.062
01:20:00.162 : en:01:20:00.162
01:23:16.358 : en:01:23:16.358
01:27:26.608 : en:01:27:26.608

Скринлист



Last edited by admin on 2016-07-04 04:16; edited 1 time in total
[Profile] [PM]

Guest

Gender: Unknown

Post 03-Jul-2016 17:43 (after 6 hours)

[Quote]

Ну как, смотрибельно?
 

croMAG

Gender: Male

Longevity: 3 years 8 months

Posts: 2137

Location: Прибалтика

Post 03-Jul-2016 18:49 (after 1 hour 5 minutes)

[Quote]

punk and destroy, Дык скачай
[Profile] [PM]

Guest

Gender: Unknown

Post 03-Jul-2016 21:40 (after 2 hours 51 minute)

[Quote]

Скачаю, не волнуйся!) Мне просто было интересно мнение человека, который уже посмотрел.
 

admin ®

Gender: Male

Longevity: 6 years 8 months

Posts: 4725

Location: Україна

Post 04-Jul-2016 04:16 (after 6 hours)

[Quote]

Перезалито. Понижен уровень русского голоса
[Profile] [PM]

$Shorox

Gender: Male

Longevity: 6 years 5 months

Posts: 1888

Post 04-Jul-2016 06:36 (after 2 hours 19 minutes)

[Quote]

punk and destroy,
14884Ну как, смотрибельно?
Незамысловатая комедия про жителей Среднего Запада.
[Profile] [PM]
Display posts:    
Reply to topic

Current time is: 26-May 22:21

All times are UTC + 3



You cannot post new topics in this forum
You cannot reply to topics in this forum
You cannot edit your posts in this forum
You cannot delete your posts in this forum
You cannot vote in polls in this forum
You cannot attach files in this forum
You cannot download files in this forum