Пол Старр / Paul Starr (Роберта Лейч / Roberta Leigh) [1964, Великобритания, фантастика, DVDRip] (СТ : karlivanovich) (Sub Rus)

Reply to topic
 
Author Message

$Shorox ®

Gender: Male

Longevity: 6 years 7 months

Posts: 1888

Post 17-May-2016 17:22

[Quote]

Пол Старр / Paul Starr
Страна: Великобритания
Жанр: фантастика
Год выпуска: 1964
Продолжительность: 00:26:00
Перевод: Субтитры karlivanovich
Cубтитры: русские
Режиссер: Роберта Лейч / Roberta Leigh
В ролях: Ed Bishop, Patricia English, Peter Reeves, Dick Vosburgh и другие
Описание: Пилотная серия не получившего продолжения кукольного сериала про Космическое бюро расследований и его агента Пола Старра.
Релиз


Сэмпл: http://multi-up.com/
Работа над релизом:
Релиз kosmoaelita.
Перевод на слух с англ. по заказу kosmoaelita - karlivanovich
Правка субтитров $Shorox
Рип скачан с tv-vault.me

Качество видео: DVDRip
Формат видео: MKV
Видео: Xvid, 640x480, 4:3, 29,970 кадров/сек, 1091 Кбит/сек
Аудио: Английский, MP3, 320 Кбит/сек, 2 канала, 48,0 КГц
Формат субтитров: softsub (SRT)
Доп. информация о субтитрах: karlivanovich

MediaInfo

Общее
Уникальный идентификатор : 244018250436383870965636150011336359477 (0xB794349EE0061F849DA4A8AEA8447E35)
Полное имя : F:\Мои проекты\Paul Starr Pilot (1964)\Paul Starr Pilot 1964 DVDRip.XviD.kosmoaelita.mkv
Формат : Matroska
Версия формата : Version 4 / Version 2
Размер файла : 266 Мбайт
Продолжительность : 25 м.
Общий поток : 1439 Кбит/сек
Дата кодирования : UTC 2016-05-17 13:54:57
Программа кодирования : mkvmerge v7.9.0 ('Birds') 64bit
Библиотека кодирования : libebml v1.3.1 + libmatroska v1.4.2
DURATION : 00:25:19.578000000
NUMBER_OF_FRAMES : 332
NUMBER_OF_BYTES : 19032
_STATISTICS_WRITING_APP : mkvmerge v7.9.0 ('Birds') 64bit
_STATISTICS_WRITING_DATE_UTC : 2016-05-17 13:54:57
_STATISTICS_TAGS : BPS DURATION NUMBER_OF_FRAMES NUMBER_OF_BYTES
Attachment : Yes
Видео
Идентификатор : 1
Формат : xvid
Идентификатор кодека : V_MS/VFW/FOURCC / xvid
Продолжительность : 25 м.
Битрейт : 1091 Кбит/сек
Ширина : 640 пикселей
Высота : 480 пикселей
Соотношение сторон : 4:3
Режим частоты кадров : Постоянный
Частота кадров : 29,970 кадров/сек
Бит/(Пиксели*Кадры) : 0.118
Размер потока : 202 Мбайт (76%)
Default : Да
Forced : Нет
Аудио
Идентификатор : 2
Формат : MPEG Audio
Версия формата : Version 1
Профиль формата : Layer 3
Режим : Joint stereo
Расширение режима : MS Stereo
Идентификатор кодека : A_MPEG/L3
Идентификатор кодека/Подсказка : MP3
Продолжительность : 25 м.
Вид битрейта : Постоянный
Битрейт : 320 Кбит/сек
Каналы : 2 канала
Частота : 48,0 КГц
Метод сжатия : С потерями
Размер потока : 59,2 Мбайт (22%)
Заголовок : Английский
Библиотека кодирования : LAME3.99.5
Язык : English
Default : Да
Forced : Нет
Текст
Идентификатор : 3
Формат : UTF-8
Идентификатор кодека : S_TEXT/UTF8
Идентификатор кодека/Информация : UTF-8 Plain Text
Заголовок : Русский (karlivanovich-kosmoaelita.com)
Язык : Russian
Default : Да
Forced : Нет

Скриншот c названием фильма

Скриншоты





Скринлист



Last edited by $Shorox on 2016-05-17 20:21; edited 4 times in total
[Profile] [PM]

$Shorox ®

Gender: Male

Longevity: 6 years 7 months

Posts: 1888

Post 17-May-2016 17:25 (after 3 minutes)

[Quote]

Та же режиссёр, что делала:
Космический патруль / Space Patrol / Planet Patrol / e01-03-39x39 (Роберта Лейч / Roberta Leigh) [1963–1968]
[Profile] [PM]

Трамвай-фильм

Gender: Male

Longevity: 4 years 11 months

Posts: 1471

Location: Россия

Post 17-May-2016 21:32 (after 4 hours)

[Quote]

И откуда вы эту кукольную тему тягаете? вроде уже 5й вариант.
[Profile] [PM]

$Shorox ®

Gender: Male

Longevity: 6 years 7 months

Posts: 1888

Post 17-May-2016 21:51 (after 18 minutes)

[Quote]

Трамвай-фильм,
Почти все скачаны с tv-vault.me
По содержанию они не только для детей.
Шестой вариант:
Пол Старр / Paul Starr (Роберта Лейч / Roberta Leigh) [1964]
Суперкар / Supercar (e01x26) (Алан Паттильо / Alan Pattillo) [1961]
Терраястребы / Terrahawks (e01x13) (Алан Паттильо / Alan Pattillo) [1983]
Метеор XL5 (e01-06x39) / Fireball XL5 (Алан Паттильо / Alan Pattillo) [1962]
Космический патруль / Space Patrol / Planet Patrol / e01-e03-1-39x39 (Роберта Лейч / Roberta Leigh) [1963–1968]
Стингрей / Stingray (e01x39) (Алан Паттильо / Alan Pattillo) [1964]
[Profile] [PM]

Трамвай-фильм

Gender: Male

Longevity: 4 years 11 months

Posts: 1471

Location: Россия

Post 17-May-2016 22:29 (after 38 minutes)

[Quote]

У как их много. Я не утверждаю, что только для детей. Просто своеобразная форма подачи фантастики, редко такую увидишь, разве что еще япошки делали.
[Profile] [PM]

$Shorox ®

Gender: Male

Longevity: 6 years 7 months

Posts: 1888

Post 17-May-2016 22:35 (after 5 minutes)

[Quote]

Трамвай-фильм,
Есть ещё:
Канал 2x2 перевёл:
Джо 90 / Joe 90 (Gerry Anderson и Sylvia Anderson) [1968]
Капитан Скарлет и Мистероны / Captain Scarlet & The Mysterons [1967-68]
Несколько серий DVD Магия перевела:
Тандербёрды: Международные спасатели / Thunderbirds (Алан Паттилло, Десмонд Сондерс и др.) [1965]
Four Feather Falls - не переводился.
***
Режиссёры этих кукольных сериалов много обычных фантастических фильмов и сериалов сняли, до эпохи компьюторной графики.
[Profile] [PM]

Трамвай-фильм

Gender: Male

Longevity: 4 years 11 months

Posts: 1471

Location: Россия

Post 18-May-2016 20:51 (after 22 hours)

[Quote]

14578Трамвай-фильм,
Режиссёры этих кукольных сериалов много обычных фантастических фильмов и сериалов сняли, до эпохи компьюторной графики.
Ну это ясно.
[Profile] [PM]
Display posts:    
Reply to topic

Current time is: 20-Jul 14:31

All times are UTC + 3



You cannot post new topics in this forum
You cannot reply to topics in this forum
You cannot edit your posts in this forum
You cannot delete your posts in this forum
You cannot vote in polls in this forum
You cannot attach files in this forum
You cannot download files in this forum