Пол Старр / Paul Starr (Роберта Лейч / Roberta Leigh) [1964, Великобритания, фантастика, DVDRip] (СТ : karlivanovich) (Sub Rus)

Ответить на тему
 
Автор Сообщение

$Shorox ®

Пол: Мужской

Стаж: 5 лет 11 месяцев

Сообщений: 1888

Создавать темы 17-Май-2016 17:52

[Цитировать]

Пол Старр / Paul Starr
Страна: Великобритания
Жанр: фантастика
Год выпуска: 1964
Продолжительность: 00:26:00
Перевод: Субтитры karlivanovich
Cубтитры: русские
Режиссер: Роберта Лейч / Roberta Leigh
В ролях: Ed Bishop, Patricia English, Peter Reeves, Dick Vosburgh и другие
Описание: Пилотная серия не получившего продолжения кукольного сериала про Космическое бюро расследований и его агента Пола Старра.
Релиз


Сэмпл: http://multi-up.com/
Работа над релизом:
Релиз kosmoaelita.
Перевод на слух с англ. по заказу kosmoaelita - karlivanovich
Правка субтитров $Shorox
Рип скачан с tv-vault.me

Качество видео: DVDRip
Формат видео: MKV
Видео: Xvid, 640x480, 4:3, 29,970 кадров/сек, 1091 Кбит/сек
Аудио: Английский, MP3, 320 Кбит/сек, 2 канала, 48,0 КГц
Формат субтитров: softsub (SRT)
Доп. информация о субтитрах: karlivanovich

MediaInfo

Общее
Уникальный идентификатор : 244018250436383870965636150011336359477 (0xB794349EE0061F849DA4A8AEA8447E35)
Полное имя : F:\Мои проекты\Paul Starr Pilot (1964)\Paul Starr Pilot 1964 DVDRip.XviD.kosmoaelita.mkv
Формат : Matroska
Версия формата : Version 4 / Version 2
Размер файла : 266 Мбайт
Продолжительность : 25 м.
Общий поток : 1439 Кбит/сек
Дата кодирования : UTC 2016-05-17 13:54:57
Программа кодирования : mkvmerge v7.9.0 ('Birds') 64bit
Библиотека кодирования : libebml v1.3.1 + libmatroska v1.4.2
DURATION : 00:25:19.578000000
NUMBER_OF_FRAMES : 332
NUMBER_OF_BYTES : 19032
_STATISTICS_WRITING_APP : mkvmerge v7.9.0 ('Birds') 64bit
_STATISTICS_WRITING_DATE_UTC : 2016-05-17 13:54:57
_STATISTICS_TAGS : BPS DURATION NUMBER_OF_FRAMES NUMBER_OF_BYTES
Attachment : Yes
Видео
Идентификатор : 1
Формат : xvid
Идентификатор кодека : V_MS/VFW/FOURCC / xvid
Продолжительность : 25 м.
Битрейт : 1091 Кбит/сек
Ширина : 640 пикселей
Высота : 480 пикселей
Соотношение сторон : 4:3
Режим частоты кадров : Постоянный
Частота кадров : 29,970 кадров/сек
Бит/(Пиксели*Кадры) : 0.118
Размер потока : 202 Мбайт (76%)
Default : Да
Forced : Нет
Аудио
Идентификатор : 2
Формат : MPEG Audio
Версия формата : Version 1
Профиль формата : Layer 3
Режим : Joint stereo
Расширение режима : MS Stereo
Идентификатор кодека : A_MPEG/L3
Идентификатор кодека/Подсказка : MP3
Продолжительность : 25 м.
Вид битрейта : Постоянный
Битрейт : 320 Кбит/сек
Каналы : 2 канала
Частота : 48,0 КГц
Метод сжатия : С потерями
Размер потока : 59,2 Мбайт (22%)
Заголовок : Английский
Библиотека кодирования : LAME3.99.5
Язык : English
Default : Да
Forced : Нет
Текст
Идентификатор : 3
Формат : UTF-8
Идентификатор кодека : S_TEXT/UTF8
Идентификатор кодека/Информация : UTF-8 Plain Text
Заголовок : Русский (karlivanovich-kosmoaelita.com)
Язык : Russian
Default : Да
Forced : Нет

Скриншот c названием фильма

Скриншоты





Скринлист



Последний раз редактировалось: $Shorox (2016-05-17 20:51), всего редактировалось 4 раз(а)
[Профиль] [ЛС]

$Shorox ®

Пол: Мужской

Стаж: 5 лет 11 месяцев

Сообщений: 1888

Создавать темы 17-Май-2016 17:55 (спустя 3 минуты)

[Цитировать]

Та же режиссёр, что делала:
Космический патруль / Space Patrol / Planet Patrol / e01-03-39x39 (Роберта Лейч / Roberta Leigh) [1963–1968]
[Профиль] [ЛС]

Трамвай-фильм

Пол: Мужской

Стаж: 4 года 4 месяца

Сообщений: 1346

Откуда: Россия

Создавать темы 17-Май-2016 22:02 (спустя 4 часа)

[Цитировать]

И откуда вы эту кукольную тему тягаете? вроде уже 5й вариант.
[Профиль] [ЛС]

$Shorox ®

Пол: Мужской

Стаж: 5 лет 11 месяцев

Сообщений: 1888

Создавать темы 17-Май-2016 22:21 (спустя 18 минут)

[Цитировать]

Трамвай-фильм,
Почти все скачаны с tv-vault.me
По содержанию они не только для детей.
Шестой вариант:
Пол Старр / Paul Starr (Роберта Лейч / Roberta Leigh) [1964]
Суперкар / Supercar (e01x26) (Алан Паттильо / Alan Pattillo) [1961]
Терраястребы / Terrahawks (e01x13) (Алан Паттильо / Alan Pattillo) [1983]
Метеор XL5 (e01-06x39) / Fireball XL5 (Алан Паттильо / Alan Pattillo) [1962]
Космический патруль / Space Patrol / Planet Patrol / e01-e03-1-39x39 (Роберта Лейч / Roberta Leigh) [1963–1968]
Стингрей / Stingray (e01x39) (Алан Паттильо / Alan Pattillo) [1964]
[Профиль] [ЛС]

Трамвай-фильм

Пол: Мужской

Стаж: 4 года 4 месяца

Сообщений: 1346

Откуда: Россия

Создавать темы 17-Май-2016 22:59 (спустя 38 минут)

[Цитировать]

У как их много. Я не утверждаю, что только для детей. Просто своеобразная форма подачи фантастики, редко такую увидишь, разве что еще япошки делали.
[Профиль] [ЛС]

$Shorox ®

Пол: Мужской

Стаж: 5 лет 11 месяцев

Сообщений: 1888

Создавать темы 17-Май-2016 23:05 (спустя 5 минут)

[Цитировать]

Трамвай-фильм,
Есть ещё:
Канал 2x2 перевёл:
Джо 90 / Joe 90 (Gerry Anderson и Sylvia Anderson) [1968]
Капитан Скарлет и Мистероны / Captain Scarlet & The Mysterons [1967-68]
Несколько серий DVD Магия перевела:
Тандербёрды: Международные спасатели / Thunderbirds (Алан Паттилло, Десмонд Сондерс и др.) [1965]
Four Feather Falls - не переводился.
***
Режиссёры этих кукольных сериалов много обычных фантастических фильмов и сериалов сняли, до эпохи компьюторной графики.
[Профиль] [ЛС]

Трамвай-фильм

Пол: Мужской

Стаж: 4 года 4 месяца

Сообщений: 1346

Откуда: Россия

Создавать темы 18-Май-2016 21:21 (спустя 22 часа)

[Цитировать]

14578Трамвай-фильм,
Режиссёры этих кукольных сериалов много обычных фантастических фильмов и сериалов сняли, до эпохи компьюторной графики.
Ну это ясно.
[Профиль] [ЛС]
Показать сообщения:    
Ответить на тему

Текущее время: 15-Дек 01:02

Часовой пояс: UTC + 3:30



Вы не можете начинать темы
Вы не можете отвечать на сообщения
Вы не можете редактировать свои сообщения
Вы не можете удалять свои сообщения
Вы не можете голосовать в опросах
Вы не можете прикреплять файлы к сообщениям
Вы не можете скачивать файлы