Суперкар / Supercar (e01x26) (Алан Паттильо / Alan Pattillo) [1961, Великобритания, фантастика] СТ (karlivanovich)

Ответить на тему
 
Автор Сообщение

$Shorox ®

Пол: Мужской

Стаж: 5 лет 8 месяцев

Сообщений: 1890

Создавать темы 13-Май-2016 23:04

[Цитировать]

Суперкар / Supercar
Страна: Великобритания
Жанр: фантастика
Год выпуска: 1961
Продолжительность: 00:26:00
Перевод: Субтитры karlivanovich
Cубтитры: русские
Режиссер: Алан Паттильо / Alan Pattillo
В ролях: Дэвид Грэм, Грейдон Гулд, Сильвия Андерсон, Джордж Мёрселл, Сирил Шэпс и другие
Описание: Кукольный детский сериал про "Суперкар". И команду спасателей, которые как обычно мир спасают от всяких напастей.
Релиз

Список серий первого сезона:
1. Rescue - Спасение


Работа над релизом:
Релиз kosmoaelita
Русский релиз увидел свет благодаря $Shorox
Перевод - karlivanovich
Рипы скачаны tv-vault.me

Сэмпл: http://multi-up.com/
Видео: XviD, 939 Кбит/сек, 576x448, 23,976 кадра/сек
Аудио: Английский, MP3, 128 Кбит/сек, 2 канала, 48,0 КГц
Аудио 2: Английский (комментарии), MP3, 128 Кбит/сек, 2 канала, 48,0 КГц
Формат субтитров: softsub (SRT)
Доп. информация о субтитрах: karlivanovich

MediaInfo

Общее
Уникальный идентификатор : 206365092839114290071973253466918663588 (0x9B40789F16DCFBC480450C97CC16B5A4)
Полное имя : F:\Мои проекты\Supercar\Supercar (1961-1962) kosmoaelita\Supercar s01e01x26 Rescue 1961.x264.DVDRip kosmoaelita.mkv
Формат : Matroska
Версия формата : Version 4 / Version 2
Размер файла : 229 Мбайт
Продолжительность : 26 м.
Режим общего битрейта : Переменный
Общий поток : 1226 Кбит/сек
Дата кодирования : UTC 2016-05-13 19:03:30
Программа кодирования : mkvmerge v7.9.0 ('Birds') 64bit
Библиотека кодирования : libebml v1.3.1 + libmatroska v1.4.2
DURATION : 00:25:03.405000000
NUMBER_OF_FRAMES : 402
NUMBER_OF_BYTES : 24194
_STATISTICS_WRITING_APP : mkvmerge v7.9.0 ('Birds') 64bit
_STATISTICS_WRITING_DATE_UTC : 2016-05-13 19:03:30
_STATISTICS_TAGS : BPS DURATION NUMBER_OF_FRAMES NUMBER_OF_BYTES
Attachment : Yes
Видео
Идентификатор : 1
Формат : MPEG-4 Visual
Профиль формата : Advanced Simple@L5
Параметр BVOP формата : Да
Параметр QPel формата : Нет
Параметр GMC формата : Без точки перехода
Параметр матрицы формата : Default (MPEG)
Идентификатор кодека : V_MS/VFW/FOURCC / XVID
Идентификатор кодека/Подсказка : XviD
Продолжительность : 26 м.
Битрейт : 939 Кбит/сек
Ширина : 576 пикселей
Высота : 448 пикселей
Соотношение сторон : 1,286
Режим частоты кадров : Постоянный
Частота кадров : 23,976 кадра/сек
Цветовое пространство : YUV
Субдискретизация насыщенности : 4:2:0
Битовая глубина : 8 бит
Тип развёртки : Прогрессивная
Метод сжатия : С потерями
Бит/(Пиксели*Кадры) : 0.152
Размер потока : 175 Мбайт (77%)
Библиотека кодирования : XviD 1.1.0 Beta2 (UTC 2005-04-04)
Default : Да
Forced : Нет
Аудио #1
Идентификатор : 2
Формат : MPEG Audio
Версия формата : Version 1
Профиль формата : Layer 3
Режим : Joint stereo
Расширение режима : MS Stereo
Идентификатор кодека : A_MPEG/L3
Идентификатор кодека/Подсказка : MP3
Продолжительность : 27 м.
Вид битрейта : Переменный
Битрейт : 128 Кбит/сек
Каналы : 2 канала
Частота : 48,0 КГц
Метод сжатия : С потерями
Размер потока : 25,0 Мбайт (11%)
Заголовок : Английский
Библиотека кодирования : LAME3.96r
Настройки программы : -m j -V 4 -q 2 -lowpass 17.5 --abr 128
Язык : English
Default : Да
Forced : Нет
Аудио #2
Идентификатор : 3
Формат : MPEG Audio
Версия формата : Version 1
Профиль формата : Layer 3
Режим : Joint stereo
Идентификатор кодека : A_MPEG/L3
Идентификатор кодека/Подсказка : MP3
Продолжительность : 26 м.
Вид битрейта : Переменный
Битрейт : 135 Кбит/сек
Номинальный битрейт : 128 Кбит/сек
Каналы : 2 канала
Частота : 48,0 КГц
Метод сжатия : С потерями
Размер потока : 25,2 Мбайт (11%)
Заголовок : Английский (комментарии)
Библиотека кодирования : LAME3.96r
Настройки программы : -m j -V 4 -q 2 -lowpass 17.5 --abr 128
Язык : English
Default : Нет
Forced : Нет
Текст
Идентификатор : 4
Формат : UTF-8
Идентификатор кодека : S_TEXT/UTF8
Идентификатор кодека/Информация : UTF-8 Plain Text
Заголовок : Русский (karlivanovich-kosmoaelita.com)
Язык : Russian
Default : Да
Forced : Нет

Скриншот c названием фильма

Скриншоты







Последний раз редактировалось: $Shorox (2016-05-14 00:56), всего редактировалось 1 раз
[Профиль] [ЛС]
Показать сообщения:    
Ответить на тему

Текущее время: 21-Авг 20:50

Часовой пояс: UTC + 3:30



Вы не можете начинать темы
Вы не можете отвечать на сообщения
Вы не можете редактировать свои сообщения
Вы не можете удалять свои сообщения
Вы не можете голосовать в опросах
Вы не можете прикреплять файлы к сообщениям
Вы не можете скачивать файлы