Крушение лун / Crash of Moons (Rocky Jones, Space Ranger (s01e21-23) (Холлингсворт Морс / Hollingsworth Morse) [1954, США, фантастика, боевик, приключения, DVDRip] АО (Трамвай-фильм)

Ответить на тему
Статистика раздачи
Размер:  1,2 GB   |    Зарегистрирован:  1 год 2 месяца   |    Скачан:  3 раза

Полного источника не было: 16 часов

 
   
 
 
 
Автор Сообщение

admin ®

Пол: Мужской

Стаж: 4 года 10 месяцев

Сообщений: 4750

Откуда: Україна

Создавать темы 03-Май-2016 16:28

[Цитировать]

Крушение лун / Crash of Moons (Rocky Jones, Space Ranger (s01e21-23)
Страна: США, Official Films, Roland Reed Productions, Space Ranger Enterprises
Жанр: фантастика, боевик, приключения
Год выпуска: 1954
Продолжительность: 01:12:02
Перевод: Авторский (одноголосый) Трамвай-фильм
Режиссер: Холлингсворт Морс / Hollingsworth Morse
В ролях: Richard Crane ...Rocky Jones (archive footage)
Scotty Beckett Scotty Beckett ...Winky (archive footage)
Sally Mansfield Sally Mansfield ...Vena Ray (archive footage)
Robert Lyden Robert Lyden ...Bobby (archive footage)
Maurice Cass Maurice Cass ...Professor Newton (archive footage)
Charles Meredith Charles Meredith ...Secretary of Space Drake (archive footage)
Patsy Parsons Patsy Parsons ...Cleolanta (archive footage)
Harry Lauter Harry Lauter ...Atlasan (archive footage)
Maria Palmer Maria Palmer ...Potonda (archive footage)
John Banner John Banner ...Bavarro (archive footage)
Nan Leslie Nan Leslie ...Trinka (archive footage)
Lane Bradford Lane Bradford ...Lasvon, Cleolanta's Lieutenant (archive footage)
Описание: Полнометражная компиляций 21-23-го эпизодов популярного в 1950-х годах космическо-приключенческого шоу о Рокки Джонсе, космическом рейнджере.
В этом фильме ему предстоит противостоять катастрофе галактического масштаба: блуждающие луны Посида и Негато дрейфующие в космосе грозят гибели космической станции OW-9, на которой находятся друзья Рокки. Но как выясняется это не самая страшная угроза от этих небесных тел
Качество: DVDRip
Формат: MKV
Видео: x264, 1991 кбит/с, 720x544, 25 к/с
Аудио 1: Русский (AC3, 2 ch, 192 Кбит/с)
Аудио 2: Английский (AC3, 2 ch, 192 Кбит/с)
Работа над релизом:
Видеоряд найден на синемагеддоне.
Перевод и озвучка - Трамвай-фильм.
Синхр. русской дорожки - kosmoaelita



Пример русского перевода

Дополнительно

Also Known As (AKA)
USA (video box title) Crash of the Moons
USA (long title) Rocky Jones, Space Ranger: Crash of the Moons

Список эпизодов и компиляций Рокки Джонса

Многие эпизоды которого поблочно потом с сокращениями компилированы в полнометражки:
Beyond the Curtain of Space: Chapter I S1, Ep1 -10 Apr. 1954
Beyond the Curtain of Space: Chapter II S1, Ep2 - 2 Mar. 1954
Beyond the Curtain of Space: Chapter III S1, Ep3- 9 Mar. 1954
(Полнометражка Beyond the Moon)
Bobby's Comet: Chapter I S1, Ep4 - 28 Aug. 1954
Bobby's Comet: Chapter II S1, Ep5 - 13 Apr. 1954
Bobby's Comet: Chapter III S1, Ep6 - 20 Apr. 1954
Escape Into Space S1, Ep7 - 1 May 1954
Rocky's Odyssey: Chapter I S1, Ep8 - 26 Sep. 1954
Rocky's Odyssey: Chapter II S1, Ep9 - 23 Mar. 1954
Rocky's Odyssey: Chapter III S1, Ep10 - 30 Mar. 1954
(Полнометражка The Gypsy Moon)
The Pirates of Prah: Chapter I S1, Ep11 - 8 May 1954
The Pirates of Prah: Chapter II S1, Ep12 - 11 May 1954
The Pirates of Prah: Chapter III S1, Ep13 - 18 May 1954
The Forbidden Moon: Chapter I S1, Ep14 - 19 Jun. 1954
The Forbidden Moon: Chapter II S1, Ep15 - 22 Jun. 1954
The Forbidden Moon: Chapter III S1, Ep16 - 29 Jun. 1954
Silver Needle in the Sky: Chapter I S1, Ep17 - 29 May 1954
Silver Needle in the Sky: Chapter II S1, Ep18 - 1 Jul. 1954
Silver Needle in the Sky: Chapter III S1, Ep19 - 8 Jul. 1954
(Полнометражка Silver Needle in the Sky)
Kip's Private War S1, Ep20 - 31 Jul. 1954
Crash of the Moons: Chapter I S1, Ep21 - 10 Jul. 1954
Crash of Moons: Chapter II S1, Ep22 - 17 Jul. 1954
Crash of Moons: Chapter III S1, Ep23 - 24 Jul. 1954
(Полнометражка Crash of Moons)
Blast-Off: Chapter I S1, Ep24 - 14 Aug. 1954
Blast Off: Chapter II S1, Ep25 - 10 Aug. 1954
Blast Off: Chapter III S1, Ep26 - 17 Aug. 1954
The Cold Sun: Chapter I S1, Ep27 - 17 Oct. 1954
The Cold Sun: Chapter II S1, Ep28 - 31 Aug. 1954
The Cold Sun: Chapter III S1, Ep29 - 7 Sep. 1954
Inferno in Space: Chapter I S1, Ep30 - 30 Oct. 1954
Inferno in Space: Chapter II S1, Ep31 - 21 Sep. 1954
Inferno in Space: Chapter III S1, Ep32 - 28 Sep. 1954
Vena and the Darnamo S1, Ep33 - 6 Nov. 1954
Out of This World: Chapter I S1, Ep34 - 20 Nov. 1954
Out of This World: Chapter II S1, Ep35 - 19 Oct. 1954
Out of This World: Chapter III S1, Ep36 - 26 Oct. 1954
The Trial of Rocky Jones: Chapter I S1, Ep37 - 11 Dec. 1954
The Trial of Rocky Jones: Chapter II S1, Ep38 - 9 Nov. 1954
The Trial of Rocky Jones: Chapter III S1, Ep39 - 16 Nov. 1954

MediaInfo

Общее
Уникальный идентификатор : 171233440476596991478470223952236509938 (0x80D25C6DBC51E70C916EF77F0407FAF2)
Полное имя : N:\Crash of the Moons [Rocky Jones e21-23] 1954.x264.DVDRip.Rus.kosmoaelita.mkv
Формат : Matroska
Версия формата : Version 4 / Version 2
Размер файла : 1,20 Гбайт
Продолжительность : 1 ч. 12 м.
Общий поток : 2380 Кбит/сек
Название фильма : Crash of the Moons 1954
Дата кодирования : UTC 2016-05-03 12:13:28
Программа кодирования : mkvmerge v6.6.0 ('The Edge Of The In Between') built on Dec 1 2013 17:55:00
Библиотека кодирования : libebml v1.3.0 + libmatroska v1.4.1 / Lavf54.6.100
Attachments : poster Crash of the Moons 1954.jpg
Видео
Идентификатор : 1
Формат : AVC
Формат/Информация : Advanced Video Codec
Профиль формата : Baseline@L1.3
Параметр CABAC формата : Нет
Параметр ReFrames формата : 2 кадра
Идентификатор кодека : V_MPEG4/ISO/AVC
Продолжительность : 1 ч. 12 м.
Битрейт : 1991 Кбит/сек
Ширина : 720 пикселей
Высота : 544 пикселя
Соотношение сторон : 4:3
Режим частоты кадров : Постоянный
Частота кадров : 25,000 кадров/сек
Цветовое пространство : YUV
Субдискретизация насыщенности : 4:2:0
Битовая глубина : 8 бит
Тип развёртки : Прогрессивная
Бит/(Пиксели*Кадры) : 0.203
Размер потока : 1004 Мбайт (82%)
Заголовок : kosmaelita
Библиотека кодирования : x264 core 119
Настройки программы : cabac=0 / ref=2 / deblock=1:0:0 / analyse=0x1:0x111 / me=umh / subme=6 / psy=1 / psy_rd=1.00:0.00 / mixed_ref=1 / me_range=16 / chroma_me=1 / trellis=0 / 8x8dct=0 / cqm=0 / deadzone=21,11 / fast_pskip=1 / chroma_qp_offset=-2 / threads=6 / sliced_threads=0 / nr=0 / decimate=1 / interlaced=0 / bluray_compat=0 / constrained_intra=0 / bframes=0 / weightp=0 / keyint=250 / keyint_min=25 / scenecut=40 / intra_refresh=0 / rc_lookahead=40 / rc=abr / mbtree=1 / bitrate=1991 / ratetol=1.0 / qcomp=0.60 / qpmin=0 / qpmax=69 / qpstep=4 / ip_ratio=1.40 / aq=1:1.00
Default : Да
Forced : Нет
Аудио #1
Идентификатор : 2
Формат : AC-3
Формат/Информация : Audio Coding 3
Расширение режима : CM (complete main)
Параметр Endianness формата : Big
Идентификатор кодека : A_AC3
Продолжительность : 1 ч. 12 м.
Вид битрейта : Постоянный
Битрейт : 192 Кбит/сек
Каналы : 2 канала
Расположение каналов : Front: L R
Частота : 48,0 КГц
Частота кадров : 31,250 кадров/сек (1536 spf)
Метод сжатия : С потерями
Задержка видео : -40 мс.
Размер потока : 98,9 Мбайт (8%)
Заголовок : Русский АО (Трамвай-фильм)
Язык : Russian
Default : Да
Forced : Нет
Аудио #2
Идентификатор : 3
Формат : AC-3
Формат/Информация : Audio Coding 3
Расширение режима : CM (complete main)
Параметр Endianness формата : Big
Идентификатор кодека : A_AC3
Продолжительность : 1 ч. 12 м.
Вид битрейта : Постоянный
Битрейт : 192 Кбит/сек
Каналы : 2 канала
Расположение каналов : Front: L R
Частота : 48,0 КГц
Частота кадров : 31,250 кадров/сек (1536 spf)
Метод сжатия : С потерями
Задержка видео : -13 мс.
Размер потока : 98,9 Мбайт (8%)
Язык : English
Default : Нет
Forced : Нет

Скриншоты








Скринлист

cd Рип дополнительно залит на ОБЛАКО cd2
Crash of the Moons [Rocky Jones e21-23] 1954.x264.DVDRip.Rus.kosmoaelita.mkv.torrent
Торрент: Зарегистрирован [ 2016-05-03 16:28 ]

Скачать .torrent

Скачать

48 KB

Статус: проверено
Скачан: 3 раз
Размер: 1,2 GB
 
[Профиль] [ЛС]

croMAG

Пол: Мужской

Стаж: 1 год 10 месяцев

Сообщений: 1828

Откуда: Прибалтика

Создавать темы 03-Май-2016 16:56 (спустя 28 минут)

[Цитировать]

Так вот что Трамвайный сейчас переводит А говорит работы нету
[Профиль] [ЛС]

$Shorox

Пол: Мужской

Стаж: 4 года 7 месяцев

Сообщений: 1897

Создавать темы 03-Май-2016 17:00 (спустя 4 минуты)

[Цитировать]

croMAG,
Этот фильм давно переведён. Его просто здесь не было.
[Профиль] [ЛС]

Трамвай-фильм

Пол: Мужской

Стаж: 2 года 11 месяцев

Сообщений: 1101

Откуда: Россия

Создавать темы 03-Май-2016 22:04 (спустя 5 часов)

[Цитировать]

14446Так вот что Трамвайный сейчас переводит А говорит работы нету
Осталось несколько серий из второго сезона, думаю я их раскидаю за май месяц, тогда можно будет думать над новой программой.
[Профиль] [ЛС]

croMAG

Пол: Мужской

Стаж: 1 год 10 месяцев

Сообщений: 1828

Откуда: Прибалтика

Создавать темы 04-Май-2016 01:16 (спустя 3 часа)

[Цитировать]

14455
14446Так вот что Трамвайный сейчас переводит А говорит работы нету
Осталось несколько серий из второго сезона, думаю я их раскидаю за май месяц, тогда можно будет думать над новой программой.
Гмммм Эт я в марте про апрель слыхал
[Профиль] [ЛС]

Трамвай-фильм

Пол: Мужской

Стаж: 2 года 11 месяцев

Сообщений: 1101

Откуда: Россия

Создавать темы 05-Май-2016 20:13 (спустя 1 день 18 часов)

[Цитировать]

14460
14455
14446Так вот что Трамвайный сейчас переводит А говорит работы нету
Осталось несколько серий из второго сезона, думаю я их раскидаю за май месяц, тогда можно будет думать над новой программой.
Гмммм Эт я в марте про апрель слыхал
Пока я вообще ничего не перевожу, дел очень много накопилось. Больше чем ожидал.
[Профиль] [ЛС]
Показать сообщения:    
Ответить на тему

Текущее время: 25-Июл 14:14

Часовой пояс: UTC + 3:30



Вы не можете начинать темы
Вы не можете отвечать на сообщения
Вы не можете редактировать свои сообщения
Вы не можете удалять свои сообщения
Вы не можете голосовать в опросах
Вы не можете прикреплять файлы к сообщениям
Вы можете скачивать файлы