Механический человек / L'uomo meccanico (Андре Дид / André Deed) [1921, Италия, Фантастика, DVDRip] ЛО (DeadSno) СТ (bankolya)

Reply to topic
 
Author Message

$Shorox ®

Gender: Male

Longevity: 6 years 4 months

Posts: 1888

Post 25-Apr-2016 09:24

[Quote]

Механический человек / Огромный боевой человекоподобный робот / L'uomo meccanico
Страна: Италия
Жанр: Фантастика
Год выпуска: 1921
Продолжительность: 00:27:56
Перевод: ЛО (одноголосый) DeadSno
Перевод 2: Субтитры bankolya
Cубтитры: русские
Режиссер: Андре Дид / André Deed
В ролях: Модестино, называемый Сальтерелло – Андре Дид /André Deed
Мадо, женщина-авантюристка – Валентина Фраскароли / Valentina Frascaroli
Профессор Д’Ара – Габриель Моро / Gabriel Moreau
Елена Д'Ара – Матильда Ламберт / Mathilde Lambert/
Рамберто, детектив – Фернандо Вивас-Мэй / Ferdinando Vivas-May/
Описание: Некий ученый изобрел машину в форме гигантского человека, управляемого электромагнитными волнами. Он может ходить, бегать, а также ломать, сжигать и разрушать все, что угодно, с ужасающей силой. Банда гангстеров, возглавляемая женщиной, убила изобретателя с целью завладеть инструкциями для изготовления механического человека.
Банду арестовали, отдали под суд и осудили, но женщине удалось сбежать. Она похитила племянницу убитого изобретателя и заставила ее открыть ей секрет изобретения своего дяди. Затем женщина-авантюристка сделала механического человека.
И наступило царство террора механического человека, которым удаленно управляла Мадо, дьвольски гениальная женщина. Насилие беспрепятственно продолжалось до тех пор, пока брату изобретателя не удалось сделать второго механического человека, которого он послал на битву с первым.
Когда два механических монстра встретились на костюмированном балу в Оперном театре, между ними произошел бой, в котором они разрушили друг друга, а также и Оперный театр, где обезумевшие от паники люди бежали к выходам. Неистово пытаясь управлять механическим человеком во время последней битвы, Мадо гибнет, пораженная электрическим током от короткого замыкания на панели управления.

*****
В раздаче два варианта видео:
1. С русскими интертирами сделанными bankolya.
2. С английскими интертирами.
В обеих вариантах удлинял видео в зоне интертиров для того, чтобы продолжительность озвучивания не выходила из неё.


Сэмпл

Работа над релизом:
Перевод на русский язык Киноклуб "Феникс"
Озвучивание по заказу kosmoaelita.com
Синхронизация видео и аудио kosmoaelita

Качество видео: DVDRip
Формат видео: MKV
Видео: XviD, 624x464, 4:3, 29,970 кадров/сек, 3568 Кбит/сек
Аудио: Русский, AC-3, 192 Кбит/сек, 2 канала, 48,0 КГц
Аудио 2: Английский, AC-3, 192 Кбит/сек, 2 канала, 48,0 КГц
Формат субтитров: hardsub (неотключаемые)
Доп. информация о субтитрах: bankolya

MediaInfo 1

Общее
Уникальный идентификатор : 238665328744135953644628291785957933775 (0xB38D4534729019F3B23299E5ED8182CF)
Полное имя : F:\Torrent T\The Mechanical Man 1921 kosmoaelita\The Mechanical Man 1921.x264.DVDRip.Rus.kosmoaelita.mkv
Формат : Matroska
Версия формата : Version 4 / Version 2
Размер файла : 806 Мбайт
Продолжительность : 27 м.
Общий поток : 4032 Кбит/сек
Дата кодирования : UTC 2016-04-25 04:37:33
Программа кодирования : mkvmerge v7.9.0 ('Birds') 64bit
Библиотека кодирования : libebml v1.3.1 + libmatroska v1.4.2
DURATION : 00:27:55.904000000
NUMBER_OF_FRAMES : 52372
NUMBER_OF_BYTES : 40221696
_STATISTICS_WRITING_APP : mkvmerge v7.9.0 ('Birds') 64bit
_STATISTICS_WRITING_DATE_UTC : 2016-04-25 04:37:33
_STATISTICS_TAGS : BPS DURATION NUMBER_OF_FRAMES NUMBER_OF_BYTES
Видео
Идентификатор : 1
Формат : MPEG-4 Visual
Профиль формата : Advanced Simple@L5
Параметр BVOP формата : Да
Параметр QPel формата : Нет
Параметр GMC формата : Без точки перехода
Параметр матрицы формата : Выборочная
Идентификатор кодека : V_MS/VFW/FOURCC / XVID
Идентификатор кодека/Подсказка : XviD
Продолжительность : 27 м.
Битрейт : 3568 Кбит/сек
Ширина : 624 пикселя
Высота : 464 пикселя
Соотношение сторон : 4:3
Режим частоты кадров : Постоянный
Частота кадров : 29,970 кадров/сек
Цветовое пространство : YUV
Субдискретизация насыщенности : 4:2:0
Битовая глубина : 8 бит
Тип развёртки : Прогрессивная
Метод сжатия : С потерями
Бит/(Пиксели*Кадры) : 0.411
Размер потока : 713 Мбайт (88%)
Заголовок : kosmoaelita
Библиотека кодирования : XviD 1.2.0.dev47 (UTC 2006-11-01)
Default : Да
Forced : Нет
Аудио #1
Идентификатор : 2
Формат : AC-3
Формат/Информация : Audio Coding 3
Расширение режима : CM (complete main)
Параметр Endianness формата : Big
Идентификатор кодека : A_AC3
Продолжительность : 27 м.
Вид битрейта : Постоянный
Битрейт : 192 Кбит/сек
Каналы : 2 канала
Расположение каналов : Front: L R
Частота : 48,0 КГц
Битовая глубина : 16 бит
Метод сжатия : С потерями
Размер потока : 38,4 Мбайт (5%)
Заголовок : Русский (DeadSno-kosmoaelita)
Язык : Russian
Default : Да
Forced : Нет
Аудио #2
Идентификатор : 3
Формат : AC-3
Формат/Информация : Audio Coding 3
Расширение режима : CM (complete main)
Параметр Endianness формата : Big
Идентификатор кодека : A_AC3
Продолжительность : 27 м.
Вид битрейта : Постоянный
Битрейт : 192 Кбит/сек
Каналы : 2 канала
Расположение каналов : Front: L R
Частота : 48,0 КГц
Битовая глубина : 16 бит
Метод сжатия : С потерями
Размер потока : 38,4 Мбайт (5%)
Заголовок : Английский
Язык : English
Default : Нет
Forced : Нет

MediaInfo 2

Общее
Уникальный идентификатор : 217601632005719905756514839105094857947 (0xA3B48CC66CF5E75B8B4FE86A4598B4DB)
Полное имя : F:\Torrent T\The Mechanical Man 1921 kosmoaelita\The Mechanical Man 1921.x264.DVDRip.fenixclub.Rus.kosmoaelita.mkv
Формат : Matroska
Версия формата : Version 4 / Version 2
Размер файла : 397 Мбайт
Продолжительность : 28 м.
Общий поток : 1930 Кбит/сек
Дата кодирования : UTC 2016-04-25 04:47:07
Программа кодирования : mkvmerge v7.9.0 ('Birds') 64bit
Библиотека кодирования : libebml v1.3.1 + libmatroska v1.4.2
DURATION : 00:28:45.760000000
NUMBER_OF_FRAMES : 53930
NUMBER_OF_BYTES : 41418240
_STATISTICS_WRITING_APP : mkvmerge v7.9.0 ('Birds') 64bit
_STATISTICS_WRITING_DATE_UTC : 2016-04-25 04:47:07
_STATISTICS_TAGS : BPS DURATION NUMBER_OF_FRAMES NUMBER_OF_BYTES
Видео
Идентификатор : 1
Формат : MPEG-4 Visual
Параметр BVOP формата : Да
Параметр QPel формата : Нет
Параметр GMC формата : Без точки перехода
Параметр матрицы формата : Default (H.263)
Идентификатор кодека : V_MS/VFW/FOURCC / DX50
Идентификатор кодека/Подсказка : DivX 5
Продолжительность : 28 м.
Битрейт : 1508 Кбит/сек
Ширина : 720 пикселей
Высота : 480 пикселей
Соотношение сторон : 3:2
Режим частоты кадров : Постоянный
Частота кадров : 29,970 кадров/сек
Стандарт вещания : NTSC
Цветовое пространство : YUV
Субдискретизация насыщенности : 4:2:0
Битовая глубина : 8 бит
Тип развёртки : Прогрессивная
Метод сжатия : С потерями
Бит/(Пиксели*Кадры) : 0.146
Размер потока : 310 Мбайт (78%)
Заголовок : Феникс-клаб
Библиотека кодирования : DivX 6.8.2 (UTC 2008-05-17)
Default : Да
Forced : Нет
Аудио #1
Идентификатор : 2
Формат : AC-3
Формат/Информация : Audio Coding 3
Расширение режима : CM (complete main)
Параметр Endianness формата : Big
Идентификатор кодека : A_AC3
Продолжительность : 28 м.
Вид битрейта : Постоянный
Битрейт : 192 Кбит/сек
Каналы : 2 канала
Расположение каналов : Front: L R
Частота : 48,0 КГц
Битовая глубина : 16 бит
Метод сжатия : С потерями
Размер потока : 39,5 Мбайт (10%)
Заголовок : Русский (kosmoaelita-DeadSno)
Язык : Russian
Default : Да
Forced : Нет
Аудио #2
Идентификатор : 3
Формат : AC-3
Формат/Информация : Audio Coding 3
Расширение режима : CM (complete main)
Параметр Endianness формата : Big
Идентификатор кодека : A_AC3
Продолжительность : 28 м.
Вид битрейта : Постоянный
Битрейт : 192 Кбит/сек
Каналы : 2 канала
Расположение каналов : Front: L R
Частота : 48,0 КГц
Битовая глубина : 16 бит
Метод сжатия : С потерями
Размер потока : 39,5 Мбайт (10%)
Заголовок : Английский
Язык : English
Default : Нет
Forced : Нет

Скриншот c названием фильма 1

Скриншот c названием фильма 2

Скриншоты 1




Скриншоты 2






Last edited by $Shorox on 2016-04-25 10:14; edited 1 time in total
[Profile] [PM]

$Shorox ®

Gender: Male

Longevity: 6 years 4 months

Posts: 1888

Post 25-Apr-2016 10:01 (after 37 minutes)

[Quote]

Сейчас заметил, что в озвучивании несколько слов пропущено:
"в Оперном театре, между ними произошел бой, в котором они разрушили друг друга,".
[Profile] [PM]

croMAG

Gender: Male

Longevity: 3 years 7 months

Posts: 2054

Location: Прибалтика

Post 25-Apr-2016 14:34 (after 4 hours)

[Quote]

Ну это покруче чем ,,Чем Ленин в октябре,,
[Profile] [PM]

admin

Gender: Male

Longevity: 6 years 7 months

Posts: 4727

Location: Україна

Post 25-Apr-2016 21:56 (after 7 hours)

[Quote]

Класс!
Самое что ни на есть ретро ab
[Profile] [PM]

pompilius

Gender: Male

Longevity: 1 year 5 months

Posts: 128

Post 05-Dec-2017 21:20 (after 1 year 7 months)

[Quote]

Как можно скачать этот фильм?
[Profile] [PM]

Трамвай-фильм

Gender: Male

Longevity: 4 years 8 months

Posts: 1438

Location: Россия

Post 05-Dec-2017 21:24 (after 3 minutes)

[Quote]

20077Как можно скачать этот фильм?
Видимо скачка доступна только для спец. группы, есть т.н. закрытый раздел
[Profile] [PM]

pompilius

Gender: Male

Longevity: 1 year 5 months

Posts: 128

Post 05-Dec-2017 21:51 (after 27 minutes)

[Quote]

20078
20077Как можно скачать этот фильм?
Видимо скачка доступна только для спец. группы, есть т.н. закрытый раздел
Вот я и спрашиваю как? Что нужно для того что бы получить доступ?
[Profile] [PM]

Трамвай-фильм

Gender: Male

Longevity: 4 years 8 months

Posts: 1438

Location: Россия

Post 06-Dec-2017 22:49 (after 1 day)

[Quote]

2007920078
20077Как можно скачать этот фильм?
Видимо скачка доступна только для спец. группы, есть т.н. закрытый раздел
Вот я и спрашиваю как? Что нужно для того что бы получить доступ?
писать админу
[Profile] [PM]
Display posts:    
Reply to topic

Current time is: 20-Apr 06:06

All times are UTC + 3.5



You cannot post new topics in this forum
You cannot reply to topics in this forum
You cannot edit your posts in this forum
You cannot delete your posts in this forum
You cannot vote in polls in this forum
You cannot attach files in this forum
You cannot download files in this forum