Вуду / Voodoo (Рене Эрам) [1995, США, Канада, ужасы, триллер, DVD5] АО (А.Гаврилов)

Reply to topic
 
Author Message

CROM@G ®

Gender: Male

Longevity: 4 years

Posts: 2248

Location: Прибалтика

Post 16-Apr-2016 18:41

[Quote]

Вуду / Voodoo
Страна: США, Канада
Жанр: ужасы, триллер
Год выпуска: 1995
Продолжительность: 01:32:33
Перевод: Авторский (одноголосый) Андрей Гаврилов
Режиссер: Рене Эрам
В ролях: Кори Фельдман, Джоэль Дж. Эдвардс, Рон Мелендес, Сара Дуглас, Джек Нэнс
Описание: Мрак и ужас опускаются на колледж Уэллс. Таинственные и страшные убийства, непонятное колдовство. Энди Чеддуэй вместе со своей любимой девушкой вступает в схватку с группой студентов, увлекающихся колдовским ритуалом Вуду. Старик Фелпс незадолго до своей страшной смерти дает Энди знания для борьбы с чудовищным колдовством.


Качество видео: DVD5
Формат видео: DVD Video
Видео: MPEG 2 (720:480) 4:3 29.970 кадров/сек битрейт переменный 3253 кбит/сек
Аудио: AC-3 2ch 48 КГц 192 кбит/сек

MediaInfo

Полное имя : C:\Users\Roman\Desktop\Voodoo\VIDEO_TS\VIDEO_TS.BUP
Формат : DVD Video
Профиль формата : Menu
Размер файла : 6,00 Кбайт
Режим общего битрейта : Переменный
Видео
Идентификатор : 224 (0xE0)
Формат : MPEG Video
Версия формата : Version 2
Вид битрейта : Переменный
Ширина : 720 пикселей
Высота : 480 пикселей
Соотношение сторон : 4:3
Частота кадров : 29,970 (29970/1000) кадров/сек
Стандарт вещания : NTSC
Метод сжатия : С потерями
Общее
Полное имя : C:\Users\Roman\Desktop\Voodoo\VIDEO_TS\VIDEO_TS.IFO
Формат : DVD Video
Профиль формата : Menu
Размер файла : 6,00 Кбайт
Режим общего битрейта : Переменный
Видео
Идентификатор : 224 (0xE0)
Формат : MPEG Video
Версия формата : Version 2
Вид битрейта : Переменный
Ширина : 720 пикселей
Высота : 480 пикселей
Соотношение сторон : 4:3
Частота кадров : 29,970 (29970/1000) кадров/сек
Стандарт вещания : NTSC
Метод сжатия : С потерями
Общее
Полное имя : C:\Users\Roman\Desktop\Voodoo\VIDEO_TS\VTS_01_0.BUP
Формат : DVD Video
Профиль формата : Program
Размер файла : 58,0 Кбайт
Продолжительность : 1 ч. 32 м.
Режим общего битрейта : Переменный
Общий поток : 86 бит/сек
Видео
Идентификатор : 224 (0xE0)
Формат : MPEG Video
Версия формата : Version 2
Продолжительность : 1 ч. 32 м.
Вид битрейта : Переменный
Ширина : 720 пикселей
Высота : 480 пикселей
Соотношение сторон : 4:3
Частота кадров : 29,970 (29970/1000) кадров/сек
Стандарт вещания : NTSC
Метод сжатия : С потерями
Аудио
Идентификатор : 128 (0x80)
Формат : AC-3
Формат/Информация : Audio Coding 3
Продолжительность : 1 ч. 32 м.
Каналы : 2 канала
Частота : 48,0 КГц
Метод сжатия : С потерями
Язык : Russian
Меню
Продолжительность : 1 ч. 32 м.
00:00:00.000 : Chapter 1
00:02:06.933 : Chapter 2
00:10:57.599 : Chapter 3
00:18:57.065 : Chapter 4
00:37:35.465 : Chapter 5
00:48:41.598 : Chapter 6
01:00:26.131 : Chapter 7
01:14:21.864 : Chapter 8
01:28:45.330 : Chapter 9
List (Audio) : 0
Общее
Полное имя : C:\Users\Roman\Desktop\Voodoo\VIDEO_TS\VTS_01_0.IFO
Формат : DVD Video
Профиль формата : Program
Размер файла : 58,0 Кбайт
Продолжительность : 1 ч. 32 м.
Режим общего битрейта : Переменный
Общий поток : 86 бит/сек
Видео
Идентификатор : 224 (0xE0)
Формат : MPEG Video
Версия формата : Version 2
Продолжительность : 1 ч. 32 м.
Вид битрейта : Переменный
Ширина : 720 пикселей
Высота : 480 пикселей
Соотношение сторон : 4:3
Частота кадров : 29,970 (29970/1000) кадров/сек
Стандарт вещания : NTSC
Метод сжатия : С потерями
Аудио
Идентификатор : 128 (0x80)
Формат : AC-3
Формат/Информация : Audio Coding 3
Продолжительность : 1 ч. 32 м.
Каналы : 2 канала
Частота : 48,0 КГц
Метод сжатия : С потерями
Язык : Russian
Меню
Продолжительность : 1 ч. 32 м.
00:00:00.000 : Chapter 1
00:02:06.933 : Chapter 2
00:10:57.599 : Chapter 3
00:18:57.065 : Chapter 4
00:37:35.465 : Chapter 5
00:48:41.598 : Chapter 6
01:00:26.131 : Chapter 7
01:14:21.864 : Chapter 8
01:28:45.330 : Chapter 9
List (Audio) : 0
Общее
Полное имя : C:\Users\Roman\Desktop\Voodoo\VIDEO_TS\VTS_01_1.VOB
Формат : MPEG-PS
Размер файла : 1024 Мбайт
Продолжительность : 40 м.
Режим общего битрейта : Переменный
Общий поток : 3515 Кбит/сек
Видео
Идентификатор : 224 (0xE0)
Формат : MPEG Video
Версия формата : Version 2
Профиль формата : Main@Main
Параметр BVOP формата : Да
Параметр матрицы формата : По умолчанию
Параметр GOP формата : M=3, N=16
Структура изображения : Frame
Продолжительность : 40 м.
Вид битрейта : Переменный
Битрейт : 3253 Кбит/сек
Максимальный битрейт : 4800 Кбит/сек
Ширина : 720 пикселей
Высота : 480 пикселей
Соотношение сторон : 4:3
Частота кадров : 29,970 (30000/1001) кадров/сек
Стандарт вещания : NTSC
Цветовое пространство : YUV
Субдискретизация насыщенности : 4:2:0
Битовая глубина : 8 бит
Тип развёртки : Чересстрочная
Порядок развёртки : Верхнее поле первое
Метод сжатия : С потерями
Бит/(Пиксели*Кадры) : 0.314
Временной код первого кадра : 01:00:00;00
Оригинал временного кода : Group of pictures header
GOP, открыто/закрыто : Открыто
Размер потока : 948 Мбайт (93%)
Основные цвета : BT.601 PAL
Характеристики трансфера : BT.470 System B, BT.470 System G
Коэффициенты матрицы : BT.601
Аудио
Идентификатор : 189 (0xBD)-128 (0x80)
Формат : AC-3
Формат/Информация : Audio Coding 3
Расширение режима : CM (complete main)
Параметр Endianness формата : Big
Режим смешивания : DVD-Video
Продолжительность : 40 м.
Вид битрейта : Постоянный
Битрейт : 192 Кбит/сек
Каналы : 2 канала
Расположение каналов : Front: L R
Частота : 48,0 КГц
Частота кадров : 31,250 кадров/сек (1536 spf)
Метод сжатия : С потерями
Размер потока : 55,9 Мбайт (5%)
Меню
Общее
Полное имя : C:\Users\Roman\Desktop\Voodoo\VIDEO_TS\VTS_01_2.VOB
Формат : MPEG-PS
Размер файла : 1024 Мбайт
Продолжительность : 37 м.
Режим общего битрейта : Переменный
Общий поток : 3817 Кбит/сек
Видео
Идентификатор : 224 (0xE0)
Формат : MPEG Video
Версия формата : Version 2
Профиль формата : Main@Main
Параметр BVOP формата : Да
Параметр матрицы формата : По умолчанию
Параметр GOP формата : M=3, N=16
Структура изображения : Frame
Продолжительность : 37 м.
Вид битрейта : Переменный
Битрейт : 3549 Кбит/сек
Максимальный битрейт : 4800 Кбит/сек
Ширина : 720 пикселей
Высота : 480 пикселей
Соотношение сторон : 4:3
Частота кадров : 29,970 (30000/1001) кадров/сек
Стандарт вещания : NTSC
Цветовое пространство : YUV
Субдискретизация насыщенности : 4:2:0
Битовая глубина : 8 бит
Тип развёртки : Чересстрочная
Порядок развёртки : Верхнее поле первое
Метод сжатия : С потерями
Бит/(Пиксели*Кадры) : 0.343
Временной код первого кадра : 01:40:44;00
Оригинал временного кода : Group of pictures header
GOP, открыто/закрыто : Открыто
Размер потока : 952 Мбайт (93%)
Основные цвета : BT.601 PAL
Характеристики трансфера : BT.470 System B, BT.470 System G
Коэффициенты матрицы : BT.601
Аудио
Идентификатор : 189 (0xBD)-128 (0x80)
Формат : AC-3
Формат/Информация : Audio Coding 3
Расширение режима : CM (complete main)
Параметр Endianness формата : Big
Режим смешивания : DVD-Video
Продолжительность : 37 м.
Вид битрейта : Постоянный
Битрейт : 192 Кбит/сек
Каналы : 2 канала
Расположение каналов : Front: L R
Частота : 48,0 КГц
Частота кадров : 31,250 кадров/сек (1536 spf)
Метод сжатия : С потерями
Задержка видео : -553 мс.
Размер потока : 51,5 Мбайт (5%)
Меню
Общее
Полное имя : C:\Users\Roman\Desktop\Voodoo\VIDEO_TS\VTS_01_3.VOB
Формат : MPEG-PS
Размер файла : 399 Мбайт
Продолжительность : 14 м.
Режим общего битрейта : Переменный
Общий поток : 3891 Кбит/сек
Видео
Идентификатор : 224 (0xE0)
Формат : MPEG Video
Версия формата : Version 2
Профиль формата : Main@Main
Параметр BVOP формата : Да
Параметр матрицы формата : По умолчанию
Параметр GOP формата : M=3, N=16
Структура изображения : Frame
Продолжительность : 14 м.
Вид битрейта : Переменный
Битрейт : 3622 Кбит/сек
Максимальный битрейт : 4800 Кбит/сек
Ширина : 720 пикселей
Высота : 480 пикселей
Соотношение сторон : 4:3
Частота кадров : 29,970 (30000/1001) кадров/сек
Стандарт вещания : NTSC
Цветовое пространство : YUV
Субдискретизация насыщенности : 4:2:0
Битовая глубина : 8 бит
Тип развёртки : Чересстрочная
Порядок развёртки : Верхнее поле первое
Метод сжатия : С потерями
Бит/(Пиксели*Кадры) : 0.350
Временной код первого кадра : 02:18:14;10
Оригинал временного кода : Group of pictures header
GOP, открыто/закрыто : Открыто
Размер потока : 371 Мбайт (93%)
Основные цвета : BT.601 PAL
Характеристики трансфера : BT.470 System B, BT.470 System G
Коэффициенты матрицы : BT.601
Аудио
Идентификатор : 189 (0xBD)-128 (0x80)
Формат : AC-3
Формат/Информация : Audio Coding 3
Расширение режима : CM (complete main)
Параметр Endianness формата : Big
Режим смешивания : DVD-Video
Продолжительность : 14 м.
Вид битрейта : Постоянный
Битрейт : 192 Кбит/сек
Каналы : 2 канала
Расположение каналов : Front: L R
Частота : 48,0 КГц
Частота кадров : 31,250 кадров/сек (1536 spf)
Метод сжатия : С потерями
Задержка видео : -594 мс.
Размер потока : 19,7 Мбайт (5%)
Меню

Скриншоты






Last edited by CROM@G on 2016-04-16 22:04; edited 1 time in total
[Profile] [PM]

CROM@G ®

Gender: Male

Longevity: 4 years

Posts: 2248

Location: Прибалтика

Post 16-Apr-2016 18:43 (after 2 minutes)

[Quote]

Пероводчика не опознал ибо в авторских не силен Могу отличить только Володарского
[Profile] [PM]

Трамвай-фильм

Gender: Male

Longevity: 5 years 1 month

Posts: 1533

Location: Россия

Post 16-Apr-2016 19:31 (after 48 minutes)

[Quote]

14199Пероводчика не опознал ибо в авторских не силен Могу отличить только Володарского
образец голоса дайте.
[Profile] [PM]

$Shorox

Gender: Male

Longevity: 6 years 9 months

Posts: 1888

Post 16-Apr-2016 20:26 (after 54 minutes)

[Quote]

croMAG,
Скорее всего Андрей Гаврилов.
[Profile] [PM]

CROM@G ®

Gender: Male

Longevity: 4 years

Posts: 2248

Location: Прибалтика

Post 16-Apr-2016 21:26 (after 59 minutes)

[Quote]

$Shorox, Скачаешь скажешь я исправлю
[Profile] [PM]

$Shorox

Gender: Male

Longevity: 6 years 9 months

Posts: 1888

Post 16-Apr-2016 21:45 (after 19 minutes)

[Quote]

croMAG,
Я этот файл уже скачал: VTS_01_1.VOB.
Сравнил с несколькими фильмами с Гавриловым. Параллельно сразу два фильма запускал.
Это Гаврилов.
[Profile] [PM]

CROM@G ®

Gender: Male

Longevity: 4 years

Posts: 2248

Location: Прибалтика

Post 16-Apr-2016 22:03 (after 17 minutes)

[Quote]

Понял
[Profile] [PM]
Display posts:    
Reply to topic

Current time is: 19-Sep 01:21

All times are UTC + 3



You cannot post new topics in this forum
You cannot reply to topics in this forum
You cannot edit your posts in this forum
You cannot delete your posts in this forum
You cannot vote in polls in this forum
You cannot attach files in this forum
You cannot download files in this forum