Крылатые всадники / Eagle Riders (Эрик Роллман) [1996, Япония/США/Австралия, фантастика, боевик, SATRip] [(полнометражки)] (АО : Трамвай-фильм)

Ответить на тему
 
Автор Сообщение

Трамвай-фильм ®

Пол: Мужской

Стаж: 4 года 4 месяца

Сообщений: 1346

Откуда: Россия

Создавать темы 16-Апр-2016 15:07

[Цитировать]

Крылатые всадники / Eagle Riders
Страна: Япония/США/Австралия
Жанр: фантастика, боевик
Год выпуска: 1996
Продолжительность: 1:30:00
Перевод: Авторский (одноголосый) Трамвай-фильм
Режиссер: Эрик Роллман
Описание: Компиляция "Команды Ниндзя-учены Гатчаман", сезонов 2 и 3, которую издала фирма SABAN, для проката в США и Канаде. Пять отважных молодых людей, крылатых всадников, под руководством доктора Кина ведет бой с инопланетной расой Ворак.
Доп. информация: Из 65 серий адаптации, я сверстал 2-е полнометражки для закрытой раздачи. Просьба никуда не перетаскивать.
Качество видео: SATRip
Формат видео: AVI
Видео: Xvid, 480x320, 29.97fps, 1 113 Kbps
Аудио: MP3, 44100Hz, stereo, 128 Кbps

MediaInfo

Video
ID : 0
Format : MPEG-4 Visual
Codec ID : XVID
Codec ID/Hint : XviD
Duration : 1h 29mn
Bit rate : 1 113 Kbps
Width : 480 pixels
Height : 320 pixels
Display aspect ratio : 3:2
Frame rate : 29.970 fps
Color space : YUV
Chroma subsampling : 4:2:0
Compression mode : Lossy
Bits/(Pixel*Frame) : 0.242
Stream size : 711 MiB (86%)
Audio
ID : 1
Format : MPEG Audio
Codec ID : 55
Codec ID/Hint : MP3
Duration : 1h 29mn
Bit rate : 128 Kbps
Channel(s) : 2 channels
Sampling rate : 44.1 KHz
Compression mode : Lossy
Stream size : 81.7 MiB (10%)
Alignment : Aligned on interleaves

Скриншоты


Фильм 1



Фильм 2


[Профиль] [ЛС]
Показать сообщения:    
Ответить на тему

Текущее время: 15-Дек 02:05

Часовой пояс: UTC + 3:30



Вы не можете начинать темы
Вы не можете отвечать на сообщения
Вы не можете редактировать свои сообщения
Вы не можете удалять свои сообщения
Вы не можете голосовать в опросах
Вы не можете прикреплять файлы к сообщениям
Вы не можете скачивать файлы