Крылатые всадники / Eagle Riders (Эрик Роллман) [1996, Япония/США/Австралия, фантастика, боевик, SATRip] [(полнометражки)] (АО : Трамвай-фильм)

Reply to topic
 
Author Message

Трамвай-фильм ®

Gender: Male

Longevity: 4 years 8 months

Posts: 1438

Location: Россия

Post 16-Apr-2016 15:07

[Quote]

Крылатые всадники / Eagle Riders
Страна: Япония/США/Австралия
Жанр: фантастика, боевик
Год выпуска: 1996
Продолжительность: 1:30:00
Перевод: Авторский (одноголосый) Трамвай-фильм
Режиссер: Эрик Роллман
Описание: Компиляция "Команды Ниндзя-учены Гатчаман", сезонов 2 и 3, которую издала фирма SABAN, для проката в США и Канаде. Пять отважных молодых людей, крылатых всадников, под руководством доктора Кина ведет бой с инопланетной расой Ворак.
Доп. информация: Из 65 серий адаптации, я сверстал 2-е полнометражки для закрытой раздачи. Просьба никуда не перетаскивать.
Качество видео: SATRip
Формат видео: AVI
Видео: Xvid, 480x320, 29.97fps, 1 113 Kbps
Аудио: MP3, 44100Hz, stereo, 128 Кbps

MediaInfo

Video
ID : 0
Format : MPEG-4 Visual
Codec ID : XVID
Codec ID/Hint : XviD
Duration : 1h 29mn
Bit rate : 1 113 Kbps
Width : 480 pixels
Height : 320 pixels
Display aspect ratio : 3:2
Frame rate : 29.970 fps
Color space : YUV
Chroma subsampling : 4:2:0
Compression mode : Lossy
Bits/(Pixel*Frame) : 0.242
Stream size : 711 MiB (86%)
Audio
ID : 1
Format : MPEG Audio
Codec ID : 55
Codec ID/Hint : MP3
Duration : 1h 29mn
Bit rate : 128 Kbps
Channel(s) : 2 channels
Sampling rate : 44.1 KHz
Compression mode : Lossy
Stream size : 81.7 MiB (10%)
Alignment : Aligned on interleaves

Скриншоты


Фильм 1



Фильм 2


[Profile] [PM]
Display posts:    
Reply to topic

Current time is: 20-Apr 06:31

All times are UTC + 3.5



You cannot post new topics in this forum
You cannot reply to topics in this forum
You cannot edit your posts in this forum
You cannot delete your posts in this forum
You cannot vote in polls in this forum
You cannot attach files in this forum
You cannot download files in this forum