Боевые роботы / Войны роботов / Robo Warriors (Иэн Бэрри / Ian Barry) [1996, США, DVD5] [Фантастика, Боевик, Приключения] (ПМ : РТР)

Reply to topic
 
Author Message

CROM@G ®

Gender: Male

Longevity: 4 years 5 months

Posts: 3023

Location: Прибалтика

Post 08-Apr-2016 18:47

[Quote]

Боевые роботы / Войны роботов / Robo Warriors
Страна: США
Год выпуска: 1996
Продолжительность: 01:29:24
Перевод: Профессиональный (многоголосый) РТР
Cубтитры: нет
Режиссер: Иэн Бэрри / Ian Barry
В ролях: Джеймс Римар / James Remar, Кайл Ховард / Kyle Howard, Джеймс Толкан / James Tolkan, Джеймс Лью / James Lew, Бернард Кейтс / Bernard Kates, Джеймс Уит / James With
Описание: В результате опустошительной межпланетной войны практически разрушена Земля и соседние планеты. Могущественные победители, воины — Терадаксы правят на Земле. Только Гибсон — величайший воин-робот способен противостоять инструменту смерти роботов, внушающему ужас Голиафу.
ДВД взят с СГ Звук отсюда http://rutracker.org/forum/viewtopic.php?t=5070764
За синхронизацию большое спасибо anvic


Качество видео: DVD5
Формат видео: DVD Video
Видео: MPEG VIDEO 720 : 526 (4:3) 29.970 кадров, 1690 кбт.сек
Аудио: AC-3 48 Кгц 224 кбит.сек 2 ch
Аудио 2: AC-3 2 CH 48 Кгц 224 кбит.сек 2 ch

MediaInfo

DVD-инфо
Title: ROBO_WARRIORS ru
Size: 4.16 Gb ( 4 356 912,00 KBytes ) - DVD-5
Enabled regions: 1, 2, 3, 4, 5, 6, 7, 8
VTS_01 :
Play Length: 00:00:11
Video: PAL 4:3 (720x576) VBR
Audio:
English (Dolby AC3, 2 ch)
VTS_02 :
Play Length: 00:00:19
Video: PAL 4:3 (720x576) VBR
Audio:
English (Dolby AC3, 2 ch)
VTS_03 :
Play Length: 00:01:12
Video: PAL 4:3 (720x576) VBR
Audio:
English (Dolby AC3, 2 ch)
Subtitles:
English
VTS_04 :
Play Length: 01:29:23+{01:29:23}
Video: PAL 4:3 (720x576) VBR
Audio:
Russian (Dolby AC3, 2 ch)
English (Dolby AC3, 2 ch)
Subtitles:
Nederlands
VTS_05 :
Play Length: 00:00:00+{00:00:00}
Video: PAL 4:3 (720x576) VBR
Audio:
English (Dolby AC3, 2 ch)
* Menus Information *
VIDEO_TS Menu
Video:
NTSC 4:3 (720x480) VBR
Auto Pan&Scan, Auto Letterboxed
English Language Unit :
Title Menu
VTS_01 Menu
Video:
PAL 4:3 (720x576) VBR
Audio:
Not specified (Dolby AC3, 2 ch)
English Language Unit :
Root Menu
VTS_02 Menu
Video:
PAL 4:3 (720x576) VBR
English Language Unit :
Root Menu
VTS_03 Menu
Video:
PAL 4:3 (720x576) VBR
English Language Unit :
Root Menu
VTS_04 Menu
Video:
PAL 4:3 (720x576) VBR
English Language Unit :
Root Menu
Chapter (PTT) Menu
VTS_05 Menu
Video:
PAL 4:3 (720x576) VBR
English Language Unit :
Root Menu
Chapter (PTT) Menu
***************
Медиа-инфо
Общее
Полное имя : F:\Torrent T\ROBO_WARRIORS ru\VIDEO_TS\VTS_04_1.VOB
Формат : MPEG-PS
Размер файла : 1024 Мбайт
Продолжительность : 21 м.
Общий поток : 6534 Кбит/сек
Видео
Идентификатор : 224 (0xE0)
Формат : MPEG Video
Версия формата : Version 2
Профиль формата : Main@Main
Параметр BVOP формата : Да
Параметр матрицы формата : Выборочная
Параметр GOP формата : M=3, N=15
Продолжительность : 21 м.
Битрейт : 6000 Кбит/сек
Ширина : 720 пикселей
Высота : 576 пикселей
Соотношение сторон : 4:3
Частота кадров : 25,000 кадров/сек
Стандарт вещания : PAL
Цветовое пространство : YUV
Субдискретизация насыщенности : 4:2:0
Битовая глубина : 8 бит
Тип развёртки : Чересстрочная
Порядок развёртки : Верхнее поле первое
Метод сжатия : С потерями
Бит/(Пиксели*Кадры) : 0.579
Временной код первого кадра : 01:01:21:00
Оригинал временного кода : Group of pictures header
Размер потока : 938 Мбайт (92%)
Аудио #1
Идентификатор : 189 (0xBD)-128 (0x80)
Формат : AC-3
Формат/Информация : Audio Coding 3
Расширение режима : CM (complete main)
Параметр Endianness формата : Big
Режим смешивания : DVD-Video
Продолжительность : 21 м.
Вид битрейта : Постоянный
Битрейт : 192 Кбит/сек
Каналы : 2 канала
Расположение каналов : Front: L R
Частота : 48,0 КГц
Битовая глубина : 16 бит
Метод сжатия : С потерями
Задержка видео : -80 мс.
Размер потока : 30,1 Мбайт (3%)
Аудио #2
Идентификатор : 189 (0xBD)-129 (0x81)
Формат : AC-3
Формат/Информация : Audio Coding 3
Расширение режима : CM (complete main)
Параметр Endianness формата : Big
Режим смешивания : DVD-Video
Продолжительность : 21 м.
Вид битрейта : Постоянный
Битрейт : 224 Кбит/сек
Каналы : 2 канала
Расположение каналов : Front: L R
Частота : 48,0 КГц
Битовая глубина : 16 бит
Метод сжатия : С потерями
Задержка видео : -80 мс.
Размер потока : 35,1 Мбайт (3%)
Меню

Скриншот c названием фильма

Скриншоты




Last edited by CROM@G on 2016-04-08 20:25; edited 4 times in total
[Profile] [PM]

Трамвай-фильм

Gender: Male

Longevity: 5 years 6 months

Posts: 1797

Location: Россия

Post 08-Apr-2016 20:20 (after 1 hour 33 minutes)

[Quote]

По ТВ показывали в конце 1990-х, уже не та фантастика пошла.
Да и скрины бы подправить
[Profile] [PM]

CROM@G ®

Gender: Male

Longevity: 4 years 5 months

Posts: 3023

Location: Прибалтика

Post 08-Apr-2016 20:26 (after 5 minutes)

[Quote]

Трамвай-фильм,
Самая та не то что Ленин в октябре
[Profile] [PM]

$Shorox

Gender: Male

Longevity: 7 years 1 month

Posts: 1888

Post 08-Apr-2016 20:42 (after 16 minutes)

[Quote]

Трамвай-фильм,
14038Да и скрины бы подправить
Я завтра всё поправлю.


Last edited by $Shorox on 2016-04-08 21:06; edited 1 time in total
[Profile] [PM]

CROM@G ®

Gender: Male

Longevity: 4 years 5 months

Posts: 3023

Location: Прибалтика

Post 08-Apr-2016 20:43 (after 1 minute)

[Quote]

$Shorox, А че не так ??
[Profile] [PM]

$Shorox

Gender: Male

Longevity: 7 years 1 month

Posts: 1888

Post 08-Apr-2016 21:07 (after 24 minutes)

[Quote]

croMAG,
Сделаю, чтобы всё однообразно было с другими раздачами.
[Profile] [PM]

Трамвай-фильм

Gender: Male

Longevity: 5 years 6 months

Posts: 1797

Location: Россия

Post 08-Apr-2016 22:09 (after 1 hour 1 minute)

[Quote]

14040Трамвай-фильм,
Самая та, не то что Ленин в октябре
ну хоть запятые можно ставить?
У нас разные вкусы местами
[Profile] [PM]

CROM@G ®

Gender: Male

Longevity: 4 years 5 months

Posts: 3023

Location: Прибалтика

Post 08-Apr-2016 22:43 (after 34 minutes)

[Quote]

ну хоть запятые можно ставить?
Клава мультиязычная лень искать bg
[Profile] [PM]

Трамвай-фильм

Gender: Male

Longevity: 5 years 6 months

Posts: 1797

Location: Россия

Post 09-Apr-2016 19:34 (after 20 hours)

[Quote]

что искать то, на доп. клавиатуре под цифрой 3
[Profile] [PM]

CROM@G ®

Gender: Male

Longevity: 4 years 5 months

Posts: 3023

Location: Прибалтика

Post 10-Apr-2016 00:37 (after 5 hours)

[Quote]

Трамвай-фильм, Эт смотря какая клава
[Profile] [PM]

Трамвай-фильм

Gender: Male

Longevity: 5 years 6 months

Posts: 1797

Location: Россия

Post 10-Apr-2016 11:27 (after 10 hours)

[Quote]

[Profile] [PM]

CROM@G ®

Gender: Male

Longevity: 4 years 5 months

Posts: 3023

Location: Прибалтика

Post 10-Apr-2016 11:34 (after 6 minutes)

[Quote]

Трамвай-фильм, И где ?
[Profile] [PM]

admin

Gender: Male

Longevity: 7 years 5 months

Posts: 4814

Post 10-Apr-2016 13:35 (after 2 hours 1 minute)

[Quote]

У меня под Del нижним правым при русской раскладке и при вкл Нумлок или слева от центрального Shift при его удержании.
А вообще-то любую клаву за пару минут можно перепрограммировать под свои нужді
[Profile] [PM]

Трамвай-фильм

Gender: Male

Longevity: 5 years 6 months

Posts: 1797

Location: Россия

Post 10-Apr-2016 15:25 (after 1 hour 49 minutes)

[Quote]

14084что искать то, на доп. клавиатуре под цифрой 3
14093Трамвай-фильм, И где ?
[Profile] [PM]

CROM@G ®

Gender: Male

Longevity: 4 years 5 months

Posts: 3023

Location: Прибалтика

Post 10-Apr-2016 16:15 (after 49 minutes)

[Quote]

admin, Ну пардон не умею Под цифрой 3 точно нет Да и клава у меня малеха другая чем на скрине
[Profile] [PM]
Display posts:    
Reply to topic

Current time is: 17-Feb 06:25

All times are UTC + 3



You cannot post new topics in this forum
You cannot reply to topics in this forum
You cannot edit your posts in this forum
You cannot delete your posts in this forum
You cannot vote in polls in this forum
You cannot attach files in this forum
You cannot download files in this forum