Могучий Атом / Tetsuwan Atom [1-3] (Хироси Ёсикава, Сэика Сиба / Hirosi Esikava, Seika Siba) [1959, Япония, токусацу, DVDRip-AVC] (БП : английский хардсаб) (Sub Eng)

Ответить на тему
Статистика раздачи
Размер:  924 MB   |    Зарегистрирован:  2 года 7 месяцев   |    Скачан:  3 раза

Сидов:

Пользователь ULR Отдано Скачано Отдача Загрузка
evilbuch 1 961919960917 MB 0- 0- 0-
показаны данные только за текущую сессию
 
   
 
 
 
Автор Сообщение

Faer ®

Пол: Мужской

Стаж: 3 года 10 месяцев

Сообщений: 337

Откуда: Сербия

Создавать темы 05-Апр-2016 12:20

[Цитировать]

Могучий Атом / Tetsuwan Atom
Страна: Япония
Жанр: токусацу
Год выпуска: 1959
Продолжительность: 00:25:11
Перевод: Отсутствует (английский хардсаб)
Cубтитры: английские
Режиссер: Хироси Ёсикава, Сэика Сиба / Hirosi Esikava, Seika Siba
В ролях: Мияби Ири, Сэгава, Кадзумаса Нэгиси, Мицуо Накагава, Горо Морино, Хироко Нэгиси, Хироси Мики, Цунагоро Расёмон, Кунихико Китагава, Акио Танака, Итиро Томинага, Кинъити Симидзу, Харуэ Вакахара, Хироси Кияма, Тисан Курата, Рюсукэ Накаэ, Киёси Ито, Питер Уильямс, Масао Такахаси, Такако Ириэ, Нобуо Маки, Кадзуо Нагакубо, Юдзо Сугимур
Описание: Первая адаптация манги «Могучий Атом», предшествовавшая аниме-сериалу «Астробой».
Качество видео: DVDRip-AVC
Формат видео: MP4
Видео: AVC, 640х480, 4:3, 23.976 fps, 1500 Кбит/с
Аудио: ААС, 48.0 КГц, 164 Кбит/с, стерео (японский)

MediaInfo

Общее
Полное имя : C:\Users\Faer\Desktop\Tetsuwan Atom (1959) [TSHS] episode 03 [36971C9E].mp4
Формат : MPEG-4
Идентификатор кодека : M4V
Размер файла : 300 Мбайт
Продолжительность : 25 м.
Режим общего битрейта : Переменный
Общий поток : 1667 Кбит/сек
Дата кодирования : UTC 2016-02-03 09:53:38
Дата пометки : UTC 2016-02-03 09:53:38
Видео
Идентификатор : 1
Формат : AVC
Формат/Информация : Advanced Video Codec
Профиль формата : Main@L3.0
Параметр CABAC формата : Да
Параметр ReFrames формата : 1 кадр
Идентификатор кодека : avc1
Идентификатор кодека/Информация : Advanced Video Coding
Продолжительность : 25 м.
Битрейт : 1500 Кбит/сек
Максимальный битрейт : 2717 Кбит/сек
Ширина : 640 пикселей
Высота : 480 пикселей
Соотношение сторон : 4:3
Режим частоты кадров : Постоянный
Частота кадров : 23,976 кадра/сек
Цветовое пространство : YUV
Субдискретизация насыщенности : 4:2:0
Битовая глубина : 8 бит
Тип развёртки : Прогрессивная
Бит/(Пиксели*Кадры) : 0.204
Размер потока : 270 Мбайт (90%)
Библиотека кодирования : x264 core 65 r999kMod cc51047
Настройки программы : cabac=1 / ref=1 / deblock=1:0:0 / analyse=0x1:0x111 / me=hex / subme=6 / psy_rd=1.0:0.0 / mixed_ref=0 / me_range=16 / chroma_me=1 / trellis=0 / 8x8dct=0 / cqm=0 / deadzone=21,11 / chroma_qp_offset=-2 / threads=2 / thread_queue=2 / nr=0 / decimate=1 / mbaff=0 / bframes=0 / keyint=250 / keyint_min=25 / scenecut=40(pre) / rc=2pass / bitrate=1500 / ratetol=1.0 / qcomp=0.60 / qpmin=10 / qpmax=51 / qpstep=4 / cplxblur=20.0 / qblur=0.5 / ip_ratio=1.40 / aq=1:1.00
Дата кодирования : UTC 2016-02-03 09:53:38
Дата пометки : UTC 2016-02-03 09:53:53
Аудио
Идентификатор : 2
Формат : AAC
Формат/Информация : Advanced Audio Codec
Профиль формата : LC
Идентификатор кодека : 40
Продолжительность : 25 м.
Вид битрейта : Переменный
Битрейт : 164 Кбит/сек
Максимальный битрейт : 168 Кбит/сек
Каналы : 2 канала
Расположение каналов : Front: L R
Частота : 48,0 КГц
Метод сжатия : С потерями
Размер потока : 29,5 Мбайт (10%)
Дата кодирования : UTC 2016-02-03 09:53:52
Дата пометки : UTC 2016-02-03 09:53:53
cd Рип дополнительно залит на mail.ru cd2
Tetsuwan Atom 1-3 (1959) [TSHS].torrent
 ЗОЛОТАЯ РАЗДАЧА! СКАЧАННОЕ НЕ ЗАСЧИТЫВАЕТСЯ! 
Торрент: Зарегистрирован [ 2016-04-05 12:20 ]

Скачать .torrent

Скачать

18 KB

Статус: проверено
Скачан: 3 раз
Размер: 924 MB
 
[Профиль] [ЛС]

Трамвай-фильм

Пол: Мужской

Стаж: 4 года 3 месяца

Сообщений: 1335

Откуда: Россия

Создавать темы 05-Апр-2016 18:33 (спустя 6 часов)

[Цитировать]

возьму ближе к лету на перевод.
[Профиль] [ЛС]

Faer ®

Пол: Мужской

Стаж: 3 года 10 месяцев

Сообщений: 337

Откуда: Сербия

Создавать темы 05-Апр-2016 18:38 (спустя 4 минуты)

[Цитировать]

13976возьму ближе к лету на перевод.
Субтитры вытащить?
[Профиль] [ЛС]

Трамвай-фильм

Пол: Мужской

Стаж: 4 года 3 месяца

Сообщений: 1335

Откуда: Россия

Создавать темы 05-Апр-2016 20:38 (спустя 2 часа)

[Цитировать]

13977
13976возьму ближе к лету на перевод.
Субтитры вытащить?
В смысле? Если найдете без титров, для чистоты наложения - то да, если отдельным файлом, то желательно, но не обязательно
[Профиль] [ЛС]
Показать сообщения:    
Ответить на тему

Текущее время: 14-Ноя 05:57

Часовой пояс: UTC + 3:30



Вы не можете начинать темы
Вы не можете отвечать на сообщения
Вы не можете редактировать свои сообщения
Вы не можете удалять свои сообщения
Вы не можете голосовать в опросах
Вы не можете прикреплять файлы к сообщениям
Вы можете скачивать файлы