Люди будущего / The Tomorrow People (e01-02x05) (Рон Оливер / Ron Oliver) [1992, Великобритания, фантастика, DVDRip] (СТ : karlivanovich) (Sub Rus)

Reply to topic
 
Author Message

$Shorox ®

Gender: Male

Longevity: 6 years 6 months

Posts: 1888

Post 26-Mar-2016 17:21

[Quote]

Люди будущего / The Tomorrow People
Страна: Великобритания
Жанр: фантастика
Год выпуска: 1992
Продолжительность: 00:25:00
Перевод: Субтитры karlivanovich
Cубтитры: русские
Режиссер: Рон Оливер / Ron Oliver
В ролях: Кристиан Шмид, Кристиан Тессьер, Наоми Харрис, Джефф Хардинг, Адам Пирс, Sally Sagoe, Кристен Ариза, Александра Милман, Хью Куарши, Лоренс Бувард
Описание: Некоторые люди в результате эволюции стали людьми с суперспособностями. За ними охотятся злодеи в своих корыстных целях.
Это второй вариант сериала про Людей Будущего
The Tomorrow People (1992 - 1995)
Есть первый вариант сериала про Людей Будущего
The Tomorrow People (1973–1979)
Есть третий вариант сериала про Людей Будущего
The Tomorrow People (2013–2014)
Релиз

Список серий первого сезона:
1. The Origin Story: Part 1 - Начало истории: часть 1
1. The Origin Story: Part 2 - Начало истории: часть 2

Работа над релизом:
Релиз kosmoaelita
Русский релиз увидел свет благодаря $Shorox
Перевод - karlivanovich
Тайминг субтитров - $Shorox
Рипы скачаны tv-vault.me



Сэмпл: http://multi-up.com/
Пример русских субтитров:

Качество видео: DVDRip
Формат видео: MKV
Видео: XviD, 592x448, 4:3, 25,000 кадров/сек, 1578 Кбит/сек
Аудио: Английский, MP3, 128 Кбит/сек, 2 канала, 48,0 КГц
Формат субтитров: prerendered (IDX+SUB)
Доп. информация о субтитрах: karlivanovich

MediaInfo

Общее
Уникальный идентификатор : 211653033662681416355787932361736045737 (0x9F3AE43BA58B668F912DC87F4CFBC4A9)
Полное имя : F:\Torrent T\The Tomorrow People (1992–1995) kosmoaelita\The Tomorrow People s01e01x05 The Origin Story Part 1 1992.x264.DVDRip.kosmoaelita.mkv
Формат : Matroska
Версия формата : Version 4 / Version 2
Размер файла : 295 Мбайт
Продолжительность : 23 м.
Общий поток : 1741 Кбит/сек
Дата кодирования : UTC 2016-03-26 13:32:25
Программа кодирования : mkvmerge v7.9.0 ('Birds') 64bit
Библиотека кодирования : libebml v1.3.1 + libmatroska v1.4.2
DURATION : 00:23:00.005000000
NUMBER_OF_FRAMES : 213
NUMBER_OF_BYTES : 12109
_STATISTICS_WRITING_APP : mkvmerge v7.9.0 ('Birds') 64bit
_STATISTICS_WRITING_DATE_UTC : 2016-03-26 13:32:25
_STATISTICS_TAGS : BPS DURATION NUMBER_OF_FRAMES NUMBER_OF_BYTES
Видео
Идентификатор : 1
Формат : MPEG-4 Visual
Профиль формата : Advanced Simple@L5
Параметр BVOP формата : Да
Параметр QPel формата : Нет
Параметр GMC формата : Без точки перехода
Параметр матрицы формата : Выборочная
Идентификатор кодека : V_MS/VFW/FOURCC / XVID
Идентификатор кодека/Подсказка : XviD
Продолжительность : 23 м.
Битрейт : 1578 Кбит/сек
Ширина : 592 пикселя
Высота : 448 пикселей
Соотношение сторон : 4:3
Режим частоты кадров : Постоянный
Частота кадров : 25,000 кадров/сек
Цветовое пространство : YUV
Субдискретизация насыщенности : 4:2:0
Битовая глубина : 8 бит
Тип развёртки : Прогрессивная
Метод сжатия : С потерями
Бит/(Пиксели*Кадры) : 0.238
Размер потока : 267 Мбайт (91%)
Библиотека кодирования : XviD 1.3.0.dev55
Default : Да
Forced : Нет
Аудио
Идентификатор : 2
Формат : MPEG Audio
Версия формата : Version 1
Профиль формата : Layer 3
Режим : Joint stereo
Расширение режима : MS Stereo
Идентификатор кодека : A_MPEG/L3
Идентификатор кодека/Подсказка : MP3
Продолжительность : 1 ч. 59 м.
Вид битрейта : Постоянный
Битрейт : 128 Кбит/сек
Каналы : 2 канала
Частота : 48,0 КГц
Метод сжатия : С потерями
Размер потока : 109 Мбайт (37%)
Заголовок : Английский
Библиотека кодирования : LAME3.98r
Настройки программы : -m j -V 4 -q 2 -lowpass 17 -b 128
Язык : English
Default : Да
Forced : Нет
Текст
Идентификатор : 3
Формат : UTF-8
Идентификатор кодека : S_TEXT/UTF8
Идентификатор кодека/Информация : UTF-8 Plain Text
Заголовок : Русский (karlivanovich-kosmoaelita)
Язык : Russian
Default : Да
Forced : Нет

Скриншот c названием фильма

Скриншоты






[Profile] [PM]

$Shorox ®

Gender: Male

Longevity: 6 years 6 months

Posts: 1888

Post 26-Mar-2016 19:16 (after 1 hour 55 minutes)

[Quote]

На кинопоиске сериал назвали "Парни из завтра".
http://www.kinopoisk.ru/film/583592/
Название не подходящее. В сюжете и девки будущего есть.
[Profile] [PM]

Трамвай-фильм

Gender: Male

Longevity: 4 years 10 months

Posts: 1458

Location: Россия

Post 26-Mar-2016 20:18 (after 1 hour 2 minutes)

[Quote]

13752На кинопоиске сериал назвали "Парни из завтра".
http://www.kinopoisk.ru/film/583592/
Название не подходящее. В сюжете и девки будущего есть.
На КП вообще идиотские названия, и не менее идиотские описания
[Profile] [PM]
Display posts:    
Reply to topic

Current time is: 18-Jun 00:53

All times are UTC + 3



You cannot post new topics in this forum
You cannot reply to topics in this forum
You cannot edit your posts in this forum
You cannot delete your posts in this forum
You cannot vote in polls in this forum
You cannot attach files in this forum
You cannot download files in this forum