Люди будущего / The Tomorrow People (e01-02x13) (Роджер Дэймон Прайс / Roger Damon Price) [1973, Великобритания, фантастика, DVDRip] СТ (karlivanovich)

Reply to topic
 
Author Message

$Shorox ®

Gender: Male

Longevity: 6 years 6 months

Posts: 1888

Post 16-Mar-2016 09:59

[Quote]

Люди будущего / The Tomorrow People
Страна: Великобритания
Жанр: фантастика
Год выпуска: 1973-1979
Продолжительность: 00:25:00
Перевод: Субтитры karlivanovich
Режиссер: Роджер Дэймон Прайс / Roger Damon Price
В ролях: Николас Янг, Филип Гилберт, Элизабет Адар, Питер Воэн-Кларк, Майкл Холовэй, Дин Лоуренс, Мисако Коба, Сэмми Винмилл, Стефен Салмон, Крис Читтел и другие
Описание: Некоторые люди в результате развития стали из Гомо Сапиенс Гомо Супериорами. Гомо Супериор - человек с суперспособностями. За ними охотятся злодеи в своих корыстных целях. А Люди будующего творят добро во Вселенной и пространстве.
Это первый вариант сериала про Людей Будущего
Есть второй вариант сериала про Людей Будущего
The Tomorrow People (1992 - 1995)
Есть третий вариант сериала про Людей Будущего
The Tomorrow People (2013–2014)
Релиз

Список серий первого сезона:
1. The Slaves of Jedikiah: Part 1 - Рабы Джедикии: часть 1
2. The Slaves of Jedikiah: Part 2 - Рабы Джедикии: часть 2

Работа над релизом:
Релиз kosmoaelita
Русский релиз увидел свет благодаря $Shorox
Перевод - karlivanovich
Тайминг субтитров - $Shorox
Рипы скачаны tv-vault.me

Сэмпл: http://multi-up.com/
Качество видео: DVDRip
Формат видео: MKV
Видео: DivX, 720x576, 5:4, 943 Кбит/сек, 25,000 кадров/сек
Аудио: Английский, MP3, 128 Кбит/сек, 2 канала, 44,1 КГц
Формат субтитров: prerendered (IDX+SUB)
Доп. информация о субтитрах: karlivanovich


Пример русских субтитров:

MediaInfo

Общее
Уникальный идентификатор : 195883102663764685728647915182812407064 (0x935DB69AF5187AD2B6F10FB2969DA518)
Полное имя : F:\Мои проекты\The Tomorrow People (1973–1979)\The Tomorrow People (1973–1979) kosmoaelita\The Tomorrow People s01e01p01x13 The Slaves of Jedikiah 1973.x264.DVDRip.kosmoaelita.mkv
Формат : Matroska
Версия формата : Version 4 / Version 2
Размер файла : 184 Мбайт
Продолжительность : 23 м.
Общий поток : 1092 Кбит/сек
Дата кодирования : UTC 2016-03-16 05:48:14
Программа кодирования : mkvmerge v7.9.0 ('Birds') 64bit
Библиотека кодирования : libebml v1.3.1 + libmatroska v1.4.2
DURATION : 00:21:40.168000000
NUMBER_OF_FRAMES : 290
NUMBER_OF_BYTES : 17188
_STATISTICS_WRITING_APP : mkvmerge v7.9.0 ('Birds') 64bit
_STATISTICS_WRITING_DATE_UTC : 2016-03-16 05:48:14
_STATISTICS_TAGS : BPS DURATION NUMBER_OF_FRAMES NUMBER_OF_BYTES
Видео
Идентификатор : 1
Формат : MPEG-4 Visual
Параметр BVOP формата : Да
Параметр QPel формата : Нет
Параметр GMC формата : Без точки перехода
Параметр матрицы формата : Default (H.263)
Идентификатор кодека : V_MS/VFW/FOURCC / DX50
Идентификатор кодека/Подсказка : DivX 5
Продолжительность : 23 м.
Битрейт : 943 Кбит/сек
Ширина : 720 пикселей
Высота : 576 пикселей
Соотношение сторон : 5:4
Режим частоты кадров : Постоянный
Частота кадров : 25,000 кадров/сек
Стандарт вещания : PAL
Цветовое пространство : YUV
Субдискретизация насыщенности : 4:2:0
Битовая глубина : 8 бит
Тип развёртки : Прогрессивная
Метод сжатия : С потерями
Бит/(Пиксели*Кадры) : 0.091
Размер потока : 159 Мбайт (86%)
Библиотека кодирования : DivX 5.0.1 (UTC 2002-04-09)
Default : Да
Forced : Нет
Аудио
Идентификатор : 2
Формат : MPEG Audio
Версия формата : Version 1
Профиль формата : Layer 3
Режим : Joint stereo
Расширение режима : MS Stereo
Идентификатор кодека : A_MPEG/L3
Идентификатор кодека/Подсказка : MP3
Продолжительность : 23 м.
Вид битрейта : Постоянный
Битрейт : 128 Кбит/сек
Каналы : 2 канала
Частота : 44,1 КГц
Метод сжатия : С потерями
Размер потока : 21,6 Мбайт (12%)
Заголовок : Английский
Язык : English
Default : Да
Forced : Нет
Текст
Идентификатор : 3
Формат : UTF-8
Идентификатор кодека : S_TEXT/UTF8
Идентификатор кодека/Информация : UTF-8 Plain Text
Заголовок : Русский (kosmoaelita-karlivanovich)
Язык : Russian
Default : Да
Forced : Нет

Скриншот c названием фильма

Скриншоты






Скринлист

[Profile] [PM]
Display posts:    
Reply to topic

Current time is: 17-Jun 23:48

All times are UTC + 3



You cannot post new topics in this forum
You cannot reply to topics in this forum
You cannot edit your posts in this forum
You cannot delete your posts in this forum
You cannot vote in polls in this forum
You cannot attach files in this forum
You cannot download files in this forum