Страж времени / The Time Guardian (Брайен Хэннант / Brian Hannant) [1987, Австралия, Боевик, фантастика, HDTVRip-720p] (АО : Антон Пронин)

Reply to topic
DL-List and Torrent activity
Size:  3.39 GB   |    Registered:  4 years 6 months   |    Completed:  7 times

Seeder not seen: 4 months 16 days

 
   
 
 
 
Author Message

AlexNT60 ®

Gender: Male

Longevity: 7 years 7 months

Posts: 137

Location: СПб

Post 10-Mar-2016 09:00

[Quote]

Страж времени / The Time Guardian
Страна: Австралия
Жанр: Боевик, фантастика
Год выпуска: 1987
Продолжительность: 01:24:03
Перевод: Авторский (одноголосый) Антон Пронин
Режиссер: Брайен Хэннант / Brian Hannant
В ролях: Том Бёрлинсон, Никки Когхилл, Дин Стокуэлл, Кэрри Фишер, Питер Мэрилл, Тим Робертсон, Джим Холт, Дэймон Сандерс, Генри Сэлтер
Описание: В пятом тысячелетии нашей эры человечество окажется на грани вымирания, истребляемое роботами. Несколько уцелевших людей укрываются в «Городе» - конструкции, которая может перемещаться во времени. Они решают отступить в прошлое. Чтобы подготовить плацдарм для «Города» в нашем времени, гость из будущего Баллард прибывает в 1988 год.
Качество видео: HDTVRip
Формат видео: MKV
Видео: x264, 5500 кбит/с, 1280x524, 25.000 к/с
Аудио: Русский AVO (А.Пронин) (AC3, 2 ch, 192 Кбит/с)
Аудио 2: Английский (AC3, 2 ch, 192 Кбит/с)
Работа над релизом:




Трейлер

Дополнительно

слоган «Pray he's not too late»
бюджет AUD 8 000 000
рейтинг MPAA рейтинг PG рекомендуется присутствие родителей
Also Known As (AKA)
Australia (working title) Time Rider
Australia (original script title) Time Wars
Spain El guerrero del cuarto milenio
France Time Guardian
Greece (transliterated ISO-LATIN-1 title) O teleftaios iroas tis Gis
Hungary (video box title) A Galaxis Harcosai
West Germany Wächter der Zukunft
Съёмки: 6 октября 1986 — нет данных
Формат изображения: 2.35 : 1
Формат копии: 35 mm
Формат съёмок: 35 mm
Изображение: цветное
Язык: английский

Отзывы

MediaInfo

General
Unique ID : 253095499888380637085822954032068831587 (0xBE686B9263957161B77B867700442963)
Complete name : F:\Torrent\The.Time.Guardian.1987.720p.x264.HDTVRip.mkv
Format : Matroska
Format version : Version 4 / Version 2
File size : 3.39 GiB
Duration : 1h 24mn
Overall bit rate : 5 780 Kbps
Movie name : The Time Guardian (1987)
Encoded date : UTC 2016-03-01 21:19:11
Writing application : mkvmerge v8.8.0 ('Wind at my back') 64bit
Writing library : libebml v1.3.3 + libmatroska v1.4.4
Attachements : Cover.jpg
DURATION : 01:24:03.200000000
NUMBER_OF_FRAMES : 157600
NUMBER_OF_BYTES : 121036800
_STATISTICS_WRITING_APP : mkvmerge v8.8.0 ('Wind at my back') 64bit
_STATISTICS_WRITING_DATE_UTC : 2016-03-01 21:19:11
_STATISTICS_TAGS : BPS DURATION NUMBER_OF_FRAMES NUMBER_OF_BYTES
Video
ID : 1
Format : AVC
Format/Info : Advanced Video Codec
Format profile : High@L4.0
Format settings, CABAC : Yes
Format settings, ReFrames : 8 frames
Codec ID : V_MPEG4/ISO/AVC
Bit rate : 5 500 Kbps
Width : 1 280 pixels
Height : 524 pixels
Display aspect ratio : 2.40:1
Frame rate mode : Variable
Color space : YUV
Chroma subsampling : 4:2:0
Bit depth : 8 bits
Scan type : Progressive
Writing library : x264 core 146 r2538M 121396c
Encoding settings : cabac=1 / ref=8 / deblock=1:0:0 / analyse=0x3:0x133 / me=umh / subme=9 / psy=1 / psy_rd=1.00:0.00 / mixed_ref=1 / me_range=16 / chroma_me=1 / trellis=2 / 8x8dct=1 / cqm=0 / deadzone=21,11 / fast_pskip=1 / chroma_qp_offset=-2 / threads=9 / lookahead_threads=1 / sliced_threads=0 / nr=0 / decimate=1 / interlaced=0 / bluray_compat=0 / constrained_intra=0 / bframes=3 / b_pyramid=2 / b_adapt=2 / b_bias=0 / direct=3 / weightb=1 / open_gop=0 / weightp=2 / keyint=250 / keyint_min=25 / scenecut=40 / intra_refresh=0 / rc_lookahead=60 / rc=abr / mbtree=1 / bitrate=5500 / ratetol=1.0 / qcomp=0.60 / qpmin=0 / qpmax=69 / qpstep=4 / ip_ratio=1.40 / aq=1:1.00
Default : Yes
Forced : No
DURATION : 01:24:03.088000000
NUMBER_OF_FRAMES : 126077
NUMBER_OF_BYTES : 3400257640
_STATISTICS_WRITING_APP : mkvmerge v8.8.0 ('Wind at my back') 64bit
_STATISTICS_WRITING_DATE_UTC : 2016-03-01 21:19:11
_STATISTICS_TAGS : BPS DURATION NUMBER_OF_FRAMES NUMBER_OF_BYTES
Audio #1
ID : 2
Format : AC-3
Format/Info : Audio Coding 3
Mode extension : CM (complete main)
Format settings, Endianness : Big
Codec ID : A_AC3
Duration : 1h 24mn
Bit rate mode : Constant
Bit rate : 192 Kbps
Channel(s) : 2 channels
Channel positions : Front: L R
Sampling rate : 48.0 KHz
Bit depth : 16 bits
Compression mode : Lossy
Stream size : 115 MiB (3%)
Title : AVO (А.Пронин)
Language : Russian
Default : Yes
Forced : No
Audio #2
ID : 3
Format : AC-3
Format/Info : Audio Coding 3
Mode extension : CM (complete main)
Format settings, Endianness : Big
Codec ID : A_AC3
Duration : 1h 24mn
Bit rate mode : Constant
Bit rate : 192 Kbps
Channel(s) : 2 channels
Channel positions : Front: L R
Sampling rate : 48.0 KHz
Bit depth : 16 bits
Compression mode : Lossy
Stream size : 115 MiB (3%)
Language : English
Default : No
Forced : No

Скриншот c названием фильма

Скриншоты










Скринлист

cd Рип дополнительно залит на ОБЛАКО cd2
The.Time.Guardian.1987.720p.x264.HDTVRip.mkv.torrent
Torrent: Registered [ 2016-03-10 09:00 ]

Download .torrent

Download

17 KB

Status: checked
Completed: 7 times
Size: 3.39 GB
 
[Profile] [PM]

CROM@G

Gender: Male

Longevity: 5 years

Posts: 3371

Location: Прибалтика

Post 10-Mar-2016 11:26 (after 2 hours 25 minutes)

[Quote]

Оууу Класный боевичок Тут кажется вроде принцесса Лея из Звездных войн играет Ссыль на облако кривая смайлик-
[Profile] [PM]
Display posts:    
Reply to topic

Current time is: 21-Sep 03:32

All times are UTC + 3



You cannot post new topics in this forum
You cannot reply to topics in this forum
You cannot edit your posts in this forum
You cannot delete your posts in this forum
You cannot vote in polls in this forum
You cannot attach files in this forum
You can download files in this forum