Нация Пришельцев / Alien Nation / e1-21x21 (Джон МакФерсон, Гарри Лонгстрит, Gwen Arner и др.) [1989, фантастика, драма, DVDRip] ЛО (iDimo)

Ответить на тему
 
Автор Сообщение

croMAG ®

Пол: Мужской

Стаж: 3 года 2 месяца

Сообщений: 1962

Откуда: Прибалтика

Создавать темы 05-Мар-2016 16:55

[Цитировать]

Нация Пришельцев / Alien Nation (сериал)
Год выпуска: 1989
Страна: США, 20th Century Fox Television, Kenneth Johnson Productions
Жанр: фантрастика Драма
Продолжительность: 21 x ~00:46:00
Перевод: ЛО iDimo по субтитрам от Severnij
Русские субтитры: нет
Режиссёр: Джон МакФерсон, Гарри Лонгстрит, Gwen Arner и другие.
В ролях:
Гари Грэхэм (Gary Graham)... Detective Matthew Sikes
Эрик Пиерпоинт (Eric Pierpoint)... Detective George Francisco
Мишель Скарабелли (Michele Scarabelli)... Susan Francisco
Чарльз Хоуертон (Charles Howerton)... V.O. Opening Narration
Шон Сикс (Sean Six)... Buck Francisco
Терри Триз (Terri Treas)... Cathy Frankel
Рон Фасслер (Ron Fassler)... Captain Bryon Grazer
Лорен Вудленд (Lauren Woodland)... Emily Francisco и другие.
Описание: В пустыне Мохаве потерпел крушение огромный инопланетный космический корабль, перевозивший 250 тысяч рабов из разных концов Галактики. Пришельцы стали жить среди людей, многие из которых были очень враждебно настроены по отношению к «отбросам Вселенной».
Среди них — детектив Мэттью Сайкс, напарник которого погиб в перестрелке с бандой пришельцев. Перебирая бумаги погибшего друга, Мэттью делает открытие: его убили за то, что он пытался выяснить, почему пришельцы так слепо повиновались своим бывшим хозяевам.
Когда в городе начинают находить трупы пришельцев, умерших от странной болезни, а на страницы газет попадает снимок чудовищной насекомообразной твари, Мэттью и его новый напарник, пришелец Джордж, вынуждены работать рука об руку, чтобы раскрыть тайну этих событий

Список серий:
1.
***
14. Eyewitness News -
15. Partners -
16. Real Men -
17. Crossing the Line
18. Rebirth -
19. Gimme, Gimme -
20. The Touch -
21. Green Eyes -

Качество: DVDRip
Формат: AVI
Видео: ~ 769 Кбит/сек, xvid, 720x480, 3:2, 25,000 кадров/сек
Аудио: Русский ЛО (iDimo) (MP3, 2 канала, 320 Кбит/сек, 48,0 КГц)
Аудио 2: Английский (MP3, 2 канала, 128 Кбит/сек, 44,1 КГц)
Субтитры: отсутствуют
Работа над релизом:
Озвучен и переведён по заказу golovan_s - rutracker, croMAG - ex синемаскоп
Работа по синхрону, наложение русского голоса - anvic




Трейлер:

Знаете ли вы, что...

Отзывы

Рецензия

Обычно, сериалы 80-х годов ХХ века вызывают у современного зрителя, возраста «уже за 30», умиление, воспоминания о детстве-юности и заканчиваются просмотром начала первой серии. Собственно, иного от Alien Nation образца 1989 года я и не ожидал. Да и что другого можно было ждать от сериала, развивающего идеи одноименного фильма, не снискавшего особых лавров в американском прокате? Так получилось, что оба этих экранных продукта прошли в своё время мимо меня, потому я решил что убить три четверти часа пятницы пилотной серией «Нации пришельцев» будет неплохой идеей… Финальную, 21 серию сезона, мы с женой досматривали поздней ночью в воскресенье.
Завязка сюжета проста: космический корабль, перевозивший две с половиной сотни тысяч гуманоидообразных инопланетян, терпит катастрофу на территории США. После пятилетнего карантина пришельцы получают возможность жить рядом с землянами. Один из инопланетян — полицейский детектив Джордж Франциско — становится напарником землянина Метью Сайкса.
Несмотря на фантастический антураж, основа сюжета это старый добрый buddy movie, в котором вечно выходящий за рамки, неугомонный Сайкс прекрасно дополняет «правильного», но временами взрывного Франциско. И именно глазами этой парочки мы мы видим все проблемы окружающего нас с вами мира: расовую нетерпимость, экономические махинации, подростковую преступность… Вообще, как социальная фантастика и достаточно серьёзный и умный продукт, сериал хорош (относительную его неудачу в США я бы списал как раз на это — в 1989 году американские зрители вряд ли были готовы воспринять сериал где надо думать).
Актерская игра заслуживает только самых теплых слов: все главные герои хороши, дуэт у Гари Грэхема и Эрика Пиерпойнта действительно получился, но особое внимание я бы обратил на Лорен Вудленд, роль Эмили Франциско — дочери Джорджа — она сыграла потрясающе (очень жаль, что её карьера в Голливуде не сложилась).
Как итог — сериал, который лично я обязательно пересмотрю ещё раз.
P.S. А ещё там есть серия — ремикс фильма «Нападение на 13-й участок»! Ну конечно в варианте пришельцев!

Медиа-инфо

Общее
Полное имя : N:\Alien nation\Alien.Nation.1x15.avi
Формат : AVI
Формат/Информация : Audio Video Interleave
Размер файла : 415 Мбайт
Продолжительность : 46 м.
Общий поток : 1240 Кбит/сек
Программа кодирования : VirtualDubMod 1.5.10.3 (build 2550/release)
Библиотека кодирования : VirtualDubMod build 2550/release
Видео
Идентификатор : 0
Формат : MPEG-4 Visual
Профиль формата : Advanced Simple@L5
Параметр BVOP формата : 1
Параметр QPel формата : Нет
Параметр GMC формата : Без точки перехода
Параметр матрицы формата : Default (H.263)
Режим смешивания : Сжатый битовый поток
Идентификатор кодека : XVID
Идентификатор кодека/Подсказка : XviD
Продолжительность : 46 м.
Битрейт : 906 Кбит/сек
Ширина : 560 пикселей
Высота : 384 пикселя
Соотношение сторон : 3:2
Частота кадров : 23,976 (23976/1000) кадра/сек
Цветовое пространство : YUV
Субдискретизация насыщенности : 4:2:0
Битовая глубина : 8 бит
Тип развёртки : Прогрессивная
Метод сжатия : С потерями
Бит/(Пиксели*Кадры) : 0.176
Размер потока : 303 Мбайт (73%)
Библиотека кодирования : XviD 1.1.0 (UTC 2005-11-22)
Аудио #1
Идентификатор : 1
Формат : AC-3
Формат/Информация : Audio Coding 3
Расширение режима : CM (complete main)
Параметр Endianness формата : Big
Идентификатор кодека : 2000
Продолжительность : 46 м.
Вид битрейта : Постоянный
Битрейт : 192 Кбит/сек
Каналы : 2 канала
Расположение каналов : Front: L R
Частота : 48,0 КГц
Частота кадров : 31,250 кадров/сек (1536 spf)
Метод сжатия : С потерями
Размер потока : 64,3 Мбайт (15%)
Выравнивание : Разделение по промежуткам
Продолжительность промежутка : 42 мс. (1,00 видеокадр)
Время предзагрузки промежутка : 500 мс.
Аудио #2
Идентификатор : 2
Формат : MPEG Audio
Версия формата : Version 1
Профиль формата : Layer 3
Режим : Joint stereo
Расширение режима : MS Stereo
Идентификатор кодека : 55
Идентификатор кодека/Подсказка : MP3
Продолжительность : 46 м.
Вид битрейта : Постоянный
Битрейт : 128 Кбит/сек
Каналы : 2 канала
Частота : 48,0 КГц
Метод сжатия : С потерями
Размер потока : 42,9 Мбайт (10%)
Выравнивание : Соединение по промежуткам
Продолжительность промежутка : 42 мс. (1,00 видеокадр)
Время предзагрузки промежутка : 504 мс.
Библиотека кодирования : LAME3.97b
Настройки программы : -m j -V 4 -q 2 -lowpass 17 -b 128

Скриншоты




















Скринлист

cd Рип дополнительно залит на ОБЛАКО cd2
[Профиль] [ЛС]

croMAG ®

Пол: Мужской

Стаж: 3 года 2 месяца

Сообщений: 1962

Откуда: Прибалтика

Создавать темы 05-Мар-2016 16:59 (спустя 3 минуты)

[Цитировать]

Сюрприз на выходные как и обещал Тока в скринах чей-то намудрил Слишком давно раздачи не лепил и не отредактировать смотрю никак кгм bg
[Профиль] [ЛС]

$Shorox

Пол: Мужской

Стаж: 5 лет 11 месяцев

Сообщений: 1888

Создавать темы 05-Мар-2016 19:33 (спустя 2 часа 33 минуты)

[Цитировать]

croMAG,
Спасибо. Разговор на эту тему:
http://kosmoaelita.com/viewtopic.php?t=426
[Профиль] [ЛС]

croMAG ®

Пол: Мужской

Стаж: 3 года 2 месяца

Сообщений: 1962

Откуда: Прибалтика

Создавать темы 05-Мар-2016 20:07 (спустя 34 минуты)

[Цитировать]

$Shorox,
Ааа Чего там Сейчас когда заболел нет почти возможности скидываться Так хоть внесу вклад Зараза сегодня чуть не отбрыкнулся пока раздачу лепил
[Профиль] [ЛС]

$Shorox

Пол: Мужской

Стаж: 5 лет 11 месяцев

Сообщений: 1888

Создавать темы 05-Мар-2016 20:30 (спустя 22 минуты)

[Цитировать]

croMAG,
Попозже поправлю. Или Александр исправит.
Выздоравливайте поскорее.
[Профиль] [ЛС]

croMAG ®

Пол: Мужской

Стаж: 3 года 2 месяца

Сообщений: 1962

Откуда: Прибалтика

Создавать темы 05-Мар-2016 21:31 (спустя 1 час 1 минута)

[Цитировать]

$Shorox,
За 5 лет не выздоровел сейчас уже полностью не получиться скорей всего
[Профиль] [ЛС]

croMAG ®

Пол: Мужской

Стаж: 3 года 2 месяца

Сообщений: 1962

Откуда: Прибалтика

Создавать темы 05-Мар-2016 21:40 (спустя 8 минут)

[Цитировать]

Есть еще кроме этого того чего нигде нет Правда не по теме вроде я уже не помню надо коллекцию свою перелопачивать Исправили бы сразу чего уж тянуть
[Профиль] [ЛС]

$Shorox

Пол: Мужской

Стаж: 5 лет 11 месяцев

Сообщений: 1888

Создавать темы 05-Мар-2016 21:51 (спустя 10 минут)

[Цитировать]

croMAG,
Понятно.
Иногда бывает одновременно двоём правим.
[Профиль] [ЛС]

$Shorox

Пол: Мужской

Стаж: 5 лет 11 месяцев

Сообщений: 1888

Создавать темы 05-Мар-2016 22:50 (спустя 58 минут)

[Цитировать]

admin
15 и 22 отличаются по качеству видео и аудио от 16-21 серии.
15 и 22 серии
Общее
Полное имя : F:\Torrent T\Alien nation\Alien.Nation.1x15.avi
Формат : AVI
Формат/Информация : Audio Video Interleave
Размер файла : 415 Мбайт
Продолжительность : 46 м.
Общий поток : 1240 Кбит/сек
Программа кодирования : VirtualDubMod 1.5.10.3 (build 2550/release)
Библиотека кодирования : VirtualDubMod build 2550/release
Видео
Идентификатор : 0
Формат : MPEG-4 Visual
Профиль формата : Advanced Simple@L5
Параметр BVOP формата : 1
Параметр QPel формата : Нет
Параметр GMC формата : Без точки перехода
Параметр матрицы формата : Default (H.263)
Режим смешивания : Сжатый битовый поток
Идентификатор кодека : XVID
Идентификатор кодека/Подсказка : XviD
Продолжительность : 46 м.
Битрейт : 906 Кбит/сек
Ширина : 560 пикселей
Высота : 384 пикселя
Соотношение сторон : 3:2
Частота кадров : 23,976 кадра/сек
Цветовое пространство : YUV
Субдискретизация насыщенности : 4:2:0
Битовая глубина : 8 бит
Тип развёртки : Прогрессивная
Метод сжатия : С потерями
Бит/(Пиксели*Кадры) : 0.176
Размер потока : 303 Мбайт (73%)
Библиотека кодирования : XviD 1.1.0 (UTC 2005-11-22)
Аудио #1
Идентификатор : 1
Формат : AC-3
Формат/Информация : Audio Coding 3
Расширение режима : CM (complete main)
Параметр Endianness формата : Big
Идентификатор кодека : 2000
Продолжительность : 46 м.
Вид битрейта : Постоянный
Битрейт : 192 Кбит/сек
Каналы : 2 канала
Расположение каналов : Front: L R
Частота : 48,0 КГц
Битовая глубина : 16 бит
Метод сжатия : С потерями
Размер потока : 64,3 Мбайт (15%)
Выравнивание : Разделение по промежуткам
Продолжительность промежутка : 42 мс. (1,00 видеокадр)
Время предзагрузки промежутка : 500 мс.
Аудио #2
Идентификатор : 2
Формат : MPEG Audio
Версия формата : Version 1
Профиль формата : Layer 3
Режим : Joint stereo
Расширение режима : MS Stereo
Идентификатор кодека : 55
Идентификатор кодека/Подсказка : MP3
Продолжительность : 46 м.
Вид битрейта : Постоянный
Битрейт : 128 Кбит/сек
Каналы : 2 канала
Частота : 48,0 КГц
Метод сжатия : С потерями
Размер потока : 42,9 Мбайт (10%)
Выравнивание : Соединение по промежуткам
Продолжительность промежутка : 42 мс. (1,00 видеокадр)
Время предзагрузки промежутка : 504 мс.
Библиотека кодирования : LAME3.97b
Настройки программы : -m j -V 4 -q 2 -lowpass 17 -b 128
16-22 серии
Общее
Полное имя : F:\Torrent T\Alien nation\Alien.Nation.1x16.avi
Формат : AVI
Формат/Информация : Audio Video Interleave
Размер файла : 412 Мбайт
Продолжительность : 46 м.
Общий поток : 1231 Кбит/сек
Программа кодирования : VirtualDubMod 1.5.10.2 (build 2540/release)
Библиотека кодирования : VirtualDubMod build 2540/release
Видео
Идентификатор : 0
Формат : xvid
Идентификатор кодека : xvid
Продолжительность : 46 м.
Битрейт : 769 Кбит/сек
Ширина : 720 пикселей
Высота : 480 пикселей
Соотношение сторон : 3:2
Частота кадров : 25,000 кадров/сек
Стандарт вещания : NTSC
Бит/(Пиксели*Кадры) : 0.089
Размер потока : 257 Мбайт (62%)
Аудио #1
Идентификатор : 1
Формат : MPEG Audio
Версия формата : Version 1
Профиль формата : Layer 3
Режим : Joint stereo
Идентификатор кодека : 55
Идентификатор кодека/Подсказка : MP3
Продолжительность : 46 м.
Вид битрейта : Постоянный
Битрейт : 320 Кбит/сек
Каналы : 2 канала
Частота : 48,0 КГц
Метод сжатия : С потерями
Размер потока : 107 Мбайт (26%)
Выравнивание : Соединение по промежуткам
Продолжительность промежутка : 40 мс. (1,00 видеокадр)
Время предзагрузки промежутка : 504 мс.
Аудио #2
Идентификатор : 2
Формат : MPEG Audio
Версия формата : Version 1
Профиль формата : Layer 3
Режим : Joint stereo
Расширение режима : MS Stereo
Идентификатор кодека : 55
Идентификатор кодека/Подсказка : MP3
Продолжительность : 46 м.
Вид битрейта : Постоянный
Битрейт : 128 Кбит/сек
Каналы : 2 канала
Частота : 44,1 КГц
Метод сжатия : С потерями
Размер потока : 42,8 Мбайт (10%)
Выравнивание : Разделение по промежуткам
Продолжительность промежутка : 40 мс. (1,00 видеокадр)
Время предзагрузки промежутка : 500 мс.
Сериал начинается с нулевого эпизода. Серии идут 0-21. Всего 22 эпизода.
Надо перевести названия серий на русский язык.
[Профиль] [ЛС]

croMAG ®

Пол: Мужской

Стаж: 3 года 2 месяца

Сообщений: 1962

Откуда: Прибалтика

Создавать темы 05-Мар-2016 23:04 (спустя 14 минут)

[Цитировать]

$Shorox,
Ну блин качал с одной раздачи Кстати добавь я забыл За синхронизацию дорожек огромное спасибо anvic
[Профиль] [ЛС]

$Shorox

Пол: Мужской

Стаж: 5 лет 11 месяцев

Сообщений: 1888

Создавать темы 05-Мар-2016 23:20 (спустя 16 минут)

[Цитировать]

croMAG,
Сделал. Остальное admin поправит и добавит.
Здесь есть остальные серии на русском:
Чужая нация / Нация пришельцев / Alien Nations01e00-13x21 (ред)
Здесь есть на английском:
Чужая нация / Нация пришельцев / Alien Nation (полный 1 сезон, 22 серии) (1989) DVDRip [EN]
[Профиль] [ЛС]

admin

Пол: Мужской

Стаж: 6 лет 3 месяца

Сообщений: 4730

Откуда: Україна

Создавать темы 06-Мар-2016 05:32 (спустя 6 часов)

[Цитировать]

14. Eyewitness News - озвучка и (или) перевод Рутилова?
[Профиль] [ЛС]

$Shorox

Пол: Мужской

Стаж: 5 лет 11 месяцев

Сообщений: 1888

Создавать темы 06-Мар-2016 07:57 (спустя 2 часа 24 минуты)

[Цитировать]

admin,
14. Eyewitness News - эту серию озвучил Рутилов.
[Профиль] [ЛС]

croMAG ®

Пол: Мужской

Стаж: 3 года 2 месяца

Сообщений: 1962

Откуда: Прибалтика

Создавать темы 06-Мар-2016 10:47 (спустя 2 часа 50 минут)

[Цитировать]

$Shorox,
Верно Я забыл совсем Когда на перевод отдавал и проторчал ее запутавшись с нумерацией Потом аж месяца через три мой компаньон спохватился а у меня к нему как раз очередь подошла Пришлось вместо фильма дать эту серию на озвучку Я перевел сериал пару лет назад и уже забыл об этом Рутилова и озвучка и перевод
[Профиль] [ЛС]

Гость

Пол: Не указан

Создавать темы 19-Окт-2016 20:18 (спустя 7 месяцев 13 дней)

[Цитировать]

Простите, а где торрент файл ?
 

croMAG ®

Пол: Мужской

Стаж: 3 года 2 месяца

Сообщений: 1962

Откуда: Прибалтика

Создавать темы 19-Окт-2016 20:20 (спустя 1 минута)

[Цитировать]

16695Простите, а где торрент файл ?
На заглавной странице слева в кошельках Выбирай любой
[Профиль] [ЛС]

Гость

Пол: Не указан

Создавать темы 19-Окт-2016 20:28 (спустя 8 минут)

[Цитировать]

16696
16695Простите, а где торрент файл ?
На заглавной странице слева в кошельках Выбирай любой
Простите я имел ввиду что торрент файла я не вижу, или нужно заплатить чтобы скачать? Тогда сколько ?
 

croMAG ®

Пол: Мужской

Стаж: 3 года 2 месяца

Сообщений: 1962

Откуда: Прибалтика

Создавать темы 19-Окт-2016 20:34 (спустя 5 минут)

[Цитировать]

Большой Кол, Ну во первых на главной странице есть раздел Для вновь зарегистрированных !!! А я чутка выше просил всех внимательно ознакомиться с правилами aq
[Профиль] [ЛС]
Показать сообщения:    
Ответить на тему

Текущее время: 15-Дек 01:11

Часовой пояс: UTC + 3:30



Вы не можете начинать темы
Вы не можете отвечать на сообщения
Вы не можете редактировать свои сообщения
Вы не можете удалять свои сообщения
Вы не можете голосовать в опросах
Вы не можете прикреплять файлы к сообщениям
Вы не можете скачивать файлы