Мегасилы / Мегафорс / Megaforce (Hal Needham / Хэл Нидэм) [1982, США, Гонконг, Фантастика, боевик, BDRip-720p] АО (Вячеслав Котов), ЛО (Диколон Делон), АО (Василий Горчаков)

Reply to topic
DL-List and Torrent activity
Size:  4.45 GB   |    Registered:  4 years 6 months   |    Completed:  2 times

Seeder not seen: 1 year 3 months

 
   
 
 
 
Author Message

AlexNT60 ®

Gender: Male

Longevity: 7 years 7 months

Posts: 137

Location: СПб

Post 04-Mar-2016 16:26

[Quote]

Мегасилы / Мегафорс / Megaforce
Страна: США, Гонконг
Жанр: Фантастика, боевик
Год выпуска: 1982
Продолжительность: 01:39:03
Перевод: Авторский (одноголосый) Вячеслав Котов
Перевод 2: Авторский (одноголосый) Василий Горчаков
Режиссер: Hal Needham / Хэл Нидэм
В ролях: Бэрри Боствик
Майкл Бек
Персис Хамбатта
Эдвард Малхейр
Джордж Ферт
Генри Сильва
Майк Кулчар
Ральф Уилкокс
Ивэн С. Ким
Энтони Пена
Описание: Без знаков различий, не по уставу одетые в обтягивающие комбинезоны парни несут несокрушимую демократию в те места, где ещё водится диктатура и нет свободного доступа к американской еде и образу жизни. Они - тайная армия "свободного мира". Тоталитарные танковые полчаща будут разбиты лихими налётами штурмовиков на мопедах и багги под шуточки и попсу, и ни один коммунист не уйдёт не обиженным! Вперёд к победе демократии!
Bсе смешано в одну кучу с неоправданным пафосом.

Качество видео: BDRip-720p
Формат видео: MKV
Видео: x264 1280x720 23.976fps 5500kbps
Аудио 1: Русский АО (Котов) (AC3, 2 ch, 192 Кбит/с)
Аудио 2: Русский ЛО (Диколон Делон) (AC3, 2 ch, 192 Кбит/с)
Аудио 3: Русский АО (Горчаков) (AC3, 2 ch, 192 Кбит/с)
Аудио 4: Английский (AC3, 6 ch, 384 Кбит/с)


Трейлер

Дополнительно

Also Known As (AKA)
(original title) Megaforce
Argentina Megaforce
Brazil O Esquadrão do Terror
Finland Megaforce
Finland Megaforce - aavikkosoturit
Greece (transliterated ISO-LATIN-1 title) Komandos exontoseos
Netherlands (informal literal title) Supertroepen
Philippines (English title) Mega Force
Portugal Megaforce
слоган «When the force was with them, NO-ONE stood a chance!»
бюджет $20 000 000

Рецензия

Американские критики почему-то «мега-яростно» обрушились на вполне смотрибельную ленту об оснащённом супертехникой отряде «Мегасилы» под предводительством Эйса Хантера (то есть Аса-Охотника), который борется с группой наёмников во главе с полковником Герерой (в этой испанской фамилии тоже есть намёк на воинственность персонажа), чтобы отстоять свободу и справедливость в некой маленькой стране в недалёком будущем. Изощрённое остроумие рецензентов («рот открываешь не в изумлении от похождений героев, а лишь для зевоты», «это хуже, чем мегафарс», «мега-индюшка», «кино - как скверная жевательная резинка») было вызвано провалом фильма в прокате. От очередной работы Хэла Нидэма, бывшего каскадёра, постановщика эффектных сцен, в том числе в собственных картинах, популярных комедиях-боевиках (две серии «Полицейского и бандита», две части «Гонок «Пушечное ядро», а также «Хупер»), никто не ожидал такого скромного коммерческого результата (бюджет же составил $20 млн.). Может, по сравнению с его «мегахитами» данная лента и покажется вовсе неудачной. Однако в качестве футуристического комикса с погонями на потрясающих бронемашинах и перестрелками из лазерного оружия - это фильм, пригодный для мега-расслабленного времяпрепровождения.
=======================================================
Прилетит вдруг вояка в расписном мотоцикле…
Знаете, если бы в начальных титрах была бы надпись «основано на таком-то комиксе», то я бы всё понял и простил. В начале 80-ых комиксы только начинали выползать на большой экран, и если были действительно эпичные ленты вроде «Супермена», то существовали и ярко-красочно-примитивные вроде «Флэша Гордона» или экранизаций Филипиннских комиксов про «Дарну». И «Мегасилы» можно было бы отнести ко второй категории, ан нет — в основе ленты оригинальный сценарий, в производство вложены деньги небезызвестной Golden Harvest, а режиссёр — известный Хэл Нидэм.
Нидэм начинал как каскадёр, затем переквалифицировался в режиссёры. Он бодро начал, сняв картины с Бертом Рейнольдсом «Смоки и Бандит» и «Хупер». Затем, выпустив ещё пару фильмов, Нидэм стал катиться по наклонной, сняв несколько фильмов один другого хуже и отхватив четыре номинации на Золотую малину. Это привело к тому, что покумекав несколько лет на телевидении Хэл оставил режиссёрскую профессию.
Первой ласточкой были как раз-таки «Мегасилы» — насквозь кретиничная лента, которую можно было бы принять за армейскую агитку, не будь она так неправдоподобна. Речь здесь идёт о карикатурном злом генерале, который хочет всё захватить. Ему противостоит секретный отряд во главе с Эйс Хантером, супер-мега воякой. Всё это выльется в кучу неоправданно громких, отчаянно неправдоподобных и неимоверно пафосных потасовок.
Этот самый суперсовременный отряд ездит на расписных мотоциклах с ракетными установками и не менее расписных бронемашинах, которые видно за километр и которые смотрелись бы на своём месте, только если бы участвовали в каком-нибудь каскадёрском шоу. Ихний предводитель — Эйс Хантер — улыбчив, бородат и носит на голове, хм, голубую повязку (выкуси, Рэмбо!). Иногда ему помогает патриотичная и прекрасная Персис Кхамбатта, которая здесь куда привлекательней, чем в «Ночных ястребах» со Сталлоне.
Ещё тут есть чудаковатый генерал в исполнении Эдварда Малхейра, который, по сути, играет своего же Девона Майлса из «Рыцаря дорог». Остальные же сплошь переигрывают — причём настолько жутко, что лопаются глаза. Сценарий — отдельное нечто, экшн-сцены возникают из ниоткуда и оправданы… почти никак. Выглядит экшн, кстати, сносно, много взрывов, но зачастую он весьма неправдободобен и идиотичен, к тому же довольно сумбурен. Плюс ко всему прочему есть совершенно жутчайшая сцена, из-за которой я снизил целый балл. Это когда в финале Эйс Хантер догоняет свой самолёт на… летающем мотоцикле. Мало того, что эта сцена чудовищна просто так (хотя, казалось бы, чего только в голливудском кино не летало), да ещё и мерзкий монтаж угробил этот момент окончательно.
Итог таков — фильм может и ярок, но при этом безмозгл (ну и словечко…), чересчур патриотичен (что касается и музыки, единственный здесь хороший трек — это когда Хантер и героиня Кхамбатты летели на парашютах) и просто глуп. Провал в прокате абсолютно неудивителен, к тому же вполне закономерен — представьте что было, если бы вышел сиквел…
3 из 10

MediaInfo

Общее
Уникальный идентификатор : 206257741357895284177304774149442258395 (0x9B2BCBC8E723C5758F8232DDBEDE45DB)
Полное имя : N:\Megaforce.1982.x264.BDRip,720p.3xRus.kosmoaelita.mkv
Формат : Matroska
Версия формата : Version 4 / Version 2
Размер файла : 4,45 Гбайт
Продолжительность : 1 ч. 39 м.
Общий поток : 6427 Кбит/сек
Название фильма : Megaforce (1982)
Дата кодирования : UTC 2016-03-05 12:30:32
Программа кодирования : mkvmerge v6.6.0 ('The Edge Of The In Between') built on Dec 1 2013 17:55:00
Библиотека кодирования : libebml v1.3.0 + libmatroska v1.4.1
Обложка : Yes
Attachments : Cover.jpg / Megaforce.1982.x264.BDRip.AVC..3xRus.kosmoaelita.mkv.encoding.log / poster Megaforce-789041--o--.jpg
Видео
Идентификатор : 1
Формат : AVC
Формат/Информация : Advanced Video Codec
Профиль формата : High@L4
Параметр CABAC формата : Да
Параметр ReFrames формата : 8 кадров
Идентификатор кодека : V_MPEG4/ISO/AVC
Продолжительность : 1 ч. 39 м.
Битрейт : 5500 Кбит/сек
Ширина : 1280 пикселей
Высота : 720 пикселей
Соотношение сторон : 16:9
Режим частоты кадров : Постоянный
Частота кадров : 23,976 (24000/1001) кадра/сек
Цветовое пространство : YUV
Субдискретизация насыщенности : 4:2:0
Битовая глубина : 8 бит
Тип развёртки : Прогрессивная
Бит/(Пиксели*Кадры) : 0.249
Размер потока : 3,69 Гбайт (83%)
Заголовок : kosmoaelita
Библиотека кодирования : x264 core 146 r2538M 121396c
Настройки программы : cabac=1 / ref=8 / deblock=1:0:0 / analyse=0x3:0x133 / me=umh / subme=9 / psy=1 / psy_rd=1.00:0.00 / mixed_ref=1 / me_range=16 / chroma_me=1 / trellis=2 / 8x8dct=1 / cqm=0 / deadzone=21,11 / fast_pskip=1 / chroma_qp_offset=-2 / threads=9 / lookahead_threads=1 / sliced_threads=0 / nr=0 / decimate=1 / interlaced=0 / bluray_compat=0 / constrained_intra=0 / bframes=3 / b_pyramid=2 / b_adapt=2 / b_bias=0 / direct=3 / weightb=1 / open_gop=0 / weightp=2 / keyint=250 / keyint_min=23 / scenecut=40 / intra_refresh=0 / rc_lookahead=60 / rc=abr / mbtree=1 / bitrate=5500 / ratetol=1.0 / qcomp=0.60 / qpmin=0 / qpmax=69 / qpstep=4 / ip_ratio=1.40 / aq=1:1.00
Default : Да
Forced : Нет
Statistics Tags Issue : mkvmerge v8.8.0 ('Wind at my back') 64bit 2016-03-02 21:09:03 / mkvmerge v6.6.0 ('The Edge Of The In Between') built on Dec 1 2013 17:55:00 2016-03-05 12:30:32
FromStats_BitRate : 5462996
FromStats_Duration : 01:39:03.397000000
FromStats_FrameCount : 142498
FromStats_StreamSize : 4058594595
Аудио #1
Идентификатор : 2
Формат : AC-3
Формат/Информация : Audio Coding 3
Расширение режима : CM (complete main)
Параметр Endianness формата : Big
Идентификатор кодека : A_AC3
Продолжительность : 1 ч. 39 м.
Вид битрейта : Постоянный
Битрейт : 192 Кбит/сек
Каналы : 2 канала
Расположение каналов : Front: L R
Частота : 48,0 КГц
Частота кадров : 31,250 кадров/сек (1536 spf)
Метод сжатия : С потерями
Размер потока : 136 Мбайт (3%)
Заголовок : Русский АО (В.Котов)
Язык : Russian
Default : Да
Forced : Нет
Statistics Tags Issue : mkvmerge v8.8.0 ('Wind at my back') 64bit 2016-03-02 21:09:03 / mkvmerge v6.6.0 ('The Edge Of The In Between') built on Dec 1 2013 17:55:00 2016-03-05 12:30:32
FromStats_BitRate : 192000
FromStats_Duration : 01:39:03.328000000
FromStats_FrameCount : 185729
FromStats_StreamSize : 142639872
Аудио #2
Идентификатор : 3
Формат : AC-3
Формат/Информация : Audio Coding 3
Расширение режима : CM (complete main)
Параметр Endianness формата : Big
Идентификатор кодека : A_AC3
Продолжительность : 1 ч. 39 м.
Вид битрейта : Постоянный
Битрейт : 192 Кбит/сек
Каналы : 2 канала
Расположение каналов : Front: L R
Частота : 48,0 КГц
Частота кадров : 31,250 кадров/сек (1536 spf)
Метод сжатия : С потерями
Размер потока : 136 Мбайт (3%)
Заголовок : Русский ЛО (Диколон Делон)
Язык : Russian
Default : Нет
Forced : Нет
Аудио #3
Идентификатор : 4
Формат : AC-3
Формат/Информация : Audio Coding 3
Расширение режима : CM (complete main)
Параметр Endianness формата : Big
Идентификатор кодека : A_AC3
Продолжительность : 1 ч. 39 м.
Вид битрейта : Постоянный
Битрейт : 192 Кбит/сек
Каналы : 2 канала
Расположение каналов : Front: L R
Частота : 48,0 КГц
Частота кадров : 31,250 кадров/сек (1536 spf)
Метод сжатия : С потерями
Размер потока : 136 Мбайт (3%)
Заголовок : Русский АО (В.Горчаков)
Язык : Russian
Default : Нет
Forced : Нет
Statistics Tags Issue : mkvmerge v8.8.0 ('Wind at my back') 64bit 2016-03-02 21:09:03 / mkvmerge v6.6.0 ('The Edge Of The In Between') built on Dec 1 2013 17:55:00 2016-03-05 12:30:32
FromStats_BitRate : 192000
FromStats_Duration : 01:39:03.328000000
FromStats_FrameCount : 185729
FromStats_StreamSize : 142639872
Аудио #4
Идентификатор : 5
Формат : AC-3
Формат/Информация : Audio Coding 3
Расширение режима : CM (complete main)
Параметр Endianness формата : Big
Идентификатор кодека : A_AC3
Продолжительность : 1 ч. 39 м.
Вид битрейта : Постоянный
Битрейт : 384 Кбит/сек
Каналы : 6 каналов
Расположение каналов : Front: L C R, Side: L R, LFE
Частота : 48,0 КГц
Частота кадров : 31,250 кадров/сек (1536 spf)
Метод сжатия : С потерями
Размер потока : 272 Мбайт (6%)
Язык : English
Default : Нет
Forced : Нет
Statistics Tags Issue : mkvmerge v8.8.0 ('Wind at my back') 64bit 2016-03-02 21:09:03 / mkvmerge v6.6.0 ('The Edge Of The In Between') built on Dec 1 2013 17:55:00 2016-03-05 12:30:32
FromStats_BitRate : 384000
FromStats_Duration : 01:39:03.328000000
FromStats_FrameCount : 185729
FromStats_StreamSize : 285279744

Скриншот c названием фильма

Скриншоты




Скринлист

cd Рип дополнительно залит на ОБЛАКО cd2
Megaforce.1982.x264.BDRip.720p.3xRus.kosmoaelita.mkv.torrent
Torrent: Registered [ 2016-03-05 15:46 ]

Download .torrent

Download

45 KB

Status: checked
Completed: 2 times
Size: 4.45 GB
 
[Profile] [PM]

admin

Gender: Male

Longevity: 8 years

Posts: 4794

Post 05-Mar-2016 03:28 (after 11 hours)

[Quote]

DVDRip vs. BDRip

[Profile] [PM]

CROM@G

Gender: Male

Longevity: 5 years

Posts: 3373

Location: Прибалтика

Post 05-Mar-2016 11:33 (after 8 hours)

[Quote]

admin,
Эххххм А зачем мой мой мэсидж стер ??? В чем криминал моего вопроса ? 01
[Profile] [PM]

admin

Gender: Male

Longevity: 8 years

Posts: 4794

Post 05-Mar-2016 11:47 (after 13 minutes)

[Quote]

Случайно ночью удалил. Не ту кнопку нажал.
[Profile] [PM]

CROM@G

Gender: Male

Longevity: 5 years

Posts: 3373

Location: Прибалтика

Post 05-Mar-2016 13:56 (after 2 hours 9 minutes)

[Quote]

Эээээ Как поет группа ,,, Технология ,, Нажми на на кнопку получишь результат bk
[Profile] [PM]

admin

Gender: Male

Longevity: 8 years

Posts: 4794

Post 05-Mar-2016 15:46 (after 1 hour 50 minutes)

[Quote]

Добавлена еще одна русская дорожка
[Profile] [PM]
Display posts:    
Reply to topic

Current time is: 23-Sep 02:48

All times are UTC + 3



You cannot post new topics in this forum
You cannot reply to topics in this forum
You cannot edit your posts in this forum
You cannot delete your posts in this forum
You cannot vote in polls in this forum
You cannot attach files in this forum
You can download files in this forum