Зона выживания / Survival Zone (Персивал Рубенс / Percival Rubens) [1983, ЮАР, Фантастика, боевик, постапокалипсис, DVDRip] (АО : Виктор Рутилов)

Reply to topic
DL-List and Torrent activity
Size:  1.56 GB   |    Registered:  4 years 3 months   |    Completed:  3 times

Seeder not seen: 3 years 5 months

 
   
 
 
 
Author Message

AlexNT60 ®

Gender: Male

Longevity: 7 years 4 months

Posts: 136

Location: СПб

Post 03-Mar-2016 18:13

[Quote]

Зона выживания / Survival Zone
Страна: ЮАР, Commedia Pictures Inc.
Жанр: Фантастика, боевик, постапокалипсис
Год выпуска: 1983
Продолжительность: 01:13:46
Перевод: Авторский (одноголосый) Виктор Рутилов
Режиссер: Персивал Рубенс / Percival Rubens
В ролях: Гэри Локвуд
Камилла Спарв
Морган Стивенс
Золи Марки
Йен Стэдмен
Артур Холл
Karl Eric Kostlin
Элизабет Мейер
Joanie Combrink
Лиллиэн Рэндолл
Описание: В 1989 году почти всё человечество "погибло" в ядерной войне. Немногочисленные уцелевшие отныне вынуждены ютиться на незагрязнённых радиоактивными осадками так называемых «Зонах Выживания». В одном из таких мест расположена ферма семейства Фарберов — отец, мать, их 16-летняя дочь, маленький сынишка и старик-сосед Дядя Люк. Фарберы ухаживают за двумя последними на планете лошадьми, ездят на своем потрёпанном «Форде» в расположенный неподалёку опустевший город… Но вскоре их тихая жизнь в одночасье рушится так как в окрестностях появляется банда байкеров-каннибалов и мирные фермеры вынуждены взяться за оружие…
Качество видео: DVDRip
Формат видео: MKV
Видео: XviD, 2397 кбит/с, 720x544, 25.000 к/с
Аудио: Русский AVO (В.Рутилов) (AC3, 2 ch, 192 Кбит/с)
Аудио 2: Английский (AC3, 2 ch, 192 Кбит/с)
Аудио 3: Немецкий (AC3, 2 ch, 192 Кбит/с)
Работа над релизом:




Пример русского перевода

Дополнительно

рейтинг MPAA лицам до 17 лет обязательно присутствие взрослого
Also Known As (AKA) Canada (French title) Zone interdite
Denmark Survival Zone - Kun den stærke overlever
Finland Eloonjääneiden vyöhyke
Finland Vain vahvat selviävät
France Les salauds 1994
France Survival Zone
France Zone interdite
West Germany 1994 - Nur die Starken überleben

Знаете ли вы, что...

Отзывы

Рецензия

MediaInfo

General
Unique ID : 229219402037998986671534352880606718045 (0xAC720D0FC64EB8D4A731C80202A1285D)
Complete name : F:\Torrent\Survival.Zone.1983.DVDRip.mkv
Format : Matroska
Format version : Version 4 / Version 2
File size : 1.56 GiB
Duration : 1h 13mn
Overall bit rate : 3 034 Kbps
Movie name : Survival Zone (1983)
Encoded date : UTC 2016-02-15 18:12:47
Writing application : mkvmerge v8.8.0 ('Wind at my back') 64bit
Writing library : libebml v1.3.3 + libmatroska v1.4.4
Attachements : Cover.jpg
DURATION : 01:13:45.984000000
NUMBER_OF_FRAMES : 138312
NUMBER_OF_BYTES : 106223616
_STATISTICS_WRITING_APP : mkvmerge v8.8.0 ('Wind at my back') 64bit
_STATISTICS_WRITING_DATE_UTC : 2016-02-15 18:12:47
_STATISTICS_TAGS : BPS DURATION NUMBER_OF_FRAMES NUMBER_OF_BYTES
Video
ID : 1
Format : MPEG-4 Visual
Format profile : Advanced Simple@L5
Format settings, BVOP : Yes
Format settings, QPel : No
Format settings, GMC : No warppoints
Format settings, Matrix : Custom
Codec ID : V_MS/VFW/FOURCC / XVID
Codec ID/Hint : XviD
Duration : 1h 13mn
Bit rate : 2 397 Kbps
Width : 720 pixels
Height : 544 pixels
Display aspect ratio : 4:3
Frame rate mode : Constant
Frame rate : 25.000 fps
Color space : YUV
Chroma subsampling : 4:2:0
Bit depth : 8 bits
Scan type : Progressive
Compression mode : Lossy
Bits/(Pixel*Frame) : 0.245
Stream size : 1.24 GiB (79%)
Writing library : XviD 1.2.1 (UTC 2008-12-04)
Default : Yes
Forced : No
Audio #1
ID : 2
Format : AC-3
Format/Info : Audio Coding 3
Mode extension : CM (complete main)
Format settings, Endianness : Big
Codec ID : A_AC3
Duration : 1h 13mn
Bit rate mode : Constant
Bit rate : 192 Kbps
Channel(s) : 2 channels
Channel positions : Front: L R
Sampling rate : 48.0 KHz
Bit depth : 16 bits
Compression mode : Lossy
Stream size : 101 MiB (6%)
Title : AVO (В.Рутилов)
Language : Russian
Default : Yes
Forced : No
Audio #2
ID : 3
Format : AC-3
Format/Info : Audio Coding 3
Mode extension : CM (complete main)
Format settings, Endianness : Big
Codec ID : A_AC3
Duration : 1h 13mn
Bit rate mode : Constant
Bit rate : 192 Kbps
Channel(s) : 2 channels
Channel positions : Front: L R
Sampling rate : 48.0 KHz
Bit depth : 16 bits
Compression mode : Lossy
Stream size : 101 MiB (6%)
Language : English
Default : No
Forced : No
Audio #3
ID : 4
Format : AC-3
Format/Info : Audio Coding 3
Mode extension : CM (complete main)
Format settings, Endianness : Big
Codec ID : A_AC3
Duration : 1h 13mn
Bit rate mode : Constant
Bit rate : 192 Kbps
Channel(s) : 2 channels
Channel positions : Front: L R
Sampling rate : 48.0 KHz
Bit depth : 16 bits
Compression mode : Lossy
Stream size : 101 MiB (6%)
Language : German
Default : No
Forced : No

Скриншот c названием фильма

Скриншоты
















Скринлист

cd Рип дополнительно залит на ОБЛАКО cd2
Survival.Zone.1983.DVDRip.mkv.torrent
Torrent: Registered [ 2016-03-03 18:13 ]

Download .torrent

Download

16 KB

Status: checked
Completed: 3 times
Size: 1.56 GB
 
[Profile] [PM]

snorrinort

Gender: Male

Longevity: 3 years 1 month

Posts: 194

Post 09-Apr-2018 17:15 (after 2 years 1 month)

[Quote]

Ссылка на облако - битая
[Profile] [PM]

Guest

Gender: Unknown

Longevity: 50 years

Post 10-Apr-2018 01:11 (after 7 hours)

[Quote]

поправил
[Profile] [PM]
Display posts:    
Reply to topic

Current time is: 04-Jun 20:45

All times are UTC + 3



You cannot post new topics in this forum
You cannot reply to topics in this forum
You cannot edit your posts in this forum
You cannot delete your posts in this forum
You cannot vote in polls in this forum
You cannot attach files in this forum
You can download files in this forum