Адские спутники / Satan's Satellites (Фред С. Браннон / Fred C. Brannon) [1958, США, фантастика, боевик, WEBRip] (СТ : Severnyj, Трамвай-фильм, kosmoaelita)

Reply to topic
 
Author Message

admin ®

Gender: Male

Longevity: 7 years 8 months

Posts: 4799

Post 03-Mar-2016 00:56

[Quote]

Адские спутники / Satan's Satellites
Страна: США, Republic Pictures (I)
Жанр: фантастика, боевик
Год выпуска: 1958
Продолжительность: 01:10:14
Перевод: Субтитры Severnyj, Трамвай-фильм, kosmoaelita
Режиссер: Фред С. Браннон / Fred C. Brannon
В ролях: Judd Holdren ... Larry Martin (archive footage)
Aline Towne ... Sue Davis (archive footage)
Wilson Wood ... Bob Wilson (archive footage)
Lane Bradford ... Marex (archive footage)
Stanley Waxman ... Dr. Harding (archive footage)
John Crawford ... Roth (archive footage)
Craig Kelly ... Mr. Steele (archive footage)
Ray Boyle ... Shane (archive footage)
Leonard Nimoy ... Narab (archive footage)
Tom Steele ... Truck Driver / Robot (archive footage)
Dale Van Sickel ... Peralta Junction Station Agent (archive footage)
Roy Engel ... Boat Charter Operator (archive footage)
Jack Harden ... Kerr (archive footage)
Paul Stader ... Dock Heavy (archive footage)
Gayle Kellogg ... Dick (archive footage
Описание: Сильно укороченная и перемонтированная версия сериала 1952г "Zombies of the Stratosphere."
В преступном сговоре с одним из земных учёных марсиане планируют с помощью мощнейшего взрыва сбить Землю с её космической орбиты. Помешать им может только суперагент Ларри Мартин, способный летать с помощью экспериментального реактивного ранца

Релиз

Качество: WEBRip
Формат: MKV
Видео: x264, 580 кбит/с, 654x480, 23.976 к/с
Аудио 2: Английский (AC3, 2 ch, 192 Кбит/с)
Субтитры : Русские ()
Работа над релизом:
Релиз kosmoaelita.
Видеоряд найден в сети.
Перевод на слух с англ. по заказу kosmoaelita - Severnyj, Трамвай-фильм



Трейлерв

Дополнительно

Also Known As (AKA)
Greece (transliterated ISO-LATIN-1 title) Kataskopoi apo xeno planiti
West Germany Des Satans Satellit

Знаете ли вы, что...

Сильно укороченная и перемонтированная версия сериала 1952г "Zombies of the Stratosphere."

Рецензия

Фильм — редчайшая чушь, причем, как я понимаю, качественной копии не сохранилось.
В результате, бОльшая часть фильма выглядит так: группа Плохих Парней сталкивается с группой Хороших Парней, причем до того момента, как они оголят револьверы, разобраться кто из них кто решительно невозможно — они с неразличимыми лицами, и в одинаковых костюмах и шляпах. Дальше разобраться нетрудно: те, кто начинают стрелять сразу — это Плохие Парни, а те, кто сначала говорят «вы арестованы» — это Хорошие. (Правда, Хорошие к концу фильма озверели настолько, что тоже начали стрелять без предупреждения).
Фильм интересен, пожалуй, только любителям Стар Трека. Во-первых, в нем сыграл эпизодическую роль Леонард Нимой (Спок), кстати, сыграл тоже отмороженного инопланетянина. Во-вторых, декорации из этого треша использовались в СтарТрек-Вояджере, в серии «Невеста Хаотики», для соссоздания черно-белого (!) видеоромана на голопалубе. Эта серия весьма забавна, и после её просмотра, возможно, кому-то захочется увидеть оригинал.

MediaInfo

Общее
Уникальный идентификатор : 192054462061539306498825412491652296463 (0x907C580CB2964C3D8F4777FA34E2EF0F)
Полное имя : F:\Satan's Satellites 1958.x264.WEBRip.kosmoaelita.mkv
Формат : Matroska
Версия формата : Version 4 / Version 2
Размер файла : 396 Мбайт
Продолжительность : 1 ч. 10 м.
Общий поток : 788 Кбит/сек
Название фильма : Satan's Satellites / Адские спутники / 1958 / Релиз kosmoaelita
Дата кодирования : UTC 2016-03-02 21:37:37
Программа кодирования : mkvmerge v6.6.0 ('The Edge Of The In Between') built on Dec 1 2013 17:55:00
Библиотека кодирования : libebml v1.3.0 + libmatroska v1.4.1
Attachments : POSTER.jpg
Видео
Идентификатор : 1
Формат : AVC
Формат/Информация : Advanced Video Codec
Профиль формата : Main@L3
Параметр CABAC формата : Да
Параметр ReFrames формата : 3 кадра
Идентификатор кодека : V_MPEG4/ISO/AVC
Продолжительность : 1 ч. 10 м.
Битрейт : 580 Кбит/сек
Ширина : 654 пикселя
Высота : 480 пикселей
Соотношение сторон : 4:3
Режим частоты кадров : Постоянный
Частота кадров : 23,976 (23976/1000) кадра/сек
Цветовое пространство : YUV
Субдискретизация насыщенности : 4:2:0
Битовая глубина : 8 бит
Тип развёртки : Прогрессивная
Бит/(Пиксели*Кадры) : 0.077
Размер потока : 291 Мбайт (74%)
Заголовок : kosmoaelita
Default : Да
Forced : Нет
Цветовой диапазон : Limited
Основные цвета : BT.601 NTSC
Характеристики трансфера : BT.709
Коэффициенты матрицы : BT.601
Аудио
Идентификатор : 2
Формат : AC-3
Формат/Информация : Audio Coding 3
Расширение режима : CM (complete main)
Параметр Endianness формата : Big
Идентификатор кодека : A_AC3
Продолжительность : 1 ч. 10 м.
Вид битрейта : Постоянный
Битрейт : 192 Кбит/сек
Каналы : 2 канала
Расположение каналов : Front: L R
Частота : 48,0 КГц
Частота кадров : 31,250 кадров/сек (1536 spf)
Метод сжатия : С потерями
Размер потока : 96,4 Мбайт (24%)
Язык : English
Default : Да
Forced : Нет
Текст #1
Идентификатор : 3
Формат : VobSub
Режим смешивания : zlib
Идентификатор кодека : S_VOBSUB
Идентификатор кодека/Информация : Picture based subtitle format used on DVDs
Заголовок : Русский (Severnyj, Трамвай-фильм, kosmoaelita) VobSub - перевод на слух с англ.
Язык : Russian
Default : Да
Forced : Нет
Текст #2
Идентификатор : 4
Формат : VobSub
Режим смешивания : zlib
Идентификатор кодека : S_VOBSUB
Идентификатор кодека/Информация : Picture based subtitle format used on DVDs
Заголовок : Русский (Severnyj, Трамвай-фильм, kosmoaelita) VobSub - перевод на слух с англ.
Язык : Russian
Default : Нет
Forced : Нет
Текст #3
Идентификатор : 5
Формат : UTF-8
Идентификатор кодека : S_TEXT/UTF8
Идентификатор кодека/Информация : UTF-8 Plain Text
Заголовок : Русский (Severnyj, Трамвай-фильм, kosmoaelita) srt - перевод на слух с англ.
Язык : Russian
Default : Нет
Forced : Нет

Пример субтитров

1
00:00:02,090 --> 00:00:09,320
Репаблик продакшнз
представляет фильм
2
00:00:18,770 --> 00:00:24,670
"Адские спутники"
(Satan's Satellites, 1958г)
3
00:00:27,030 --> 00:00:33,680
В ролях: Джудд Холдрен, Алин Таун, Уилсон Вуд,
Лэйн Брэдфорд, Стэнли Ваксман
4
00:01:06,210 --> 00:01:11,290
Режиссер Фред Браннон
5
00:01:12,510 --> 00:01:15,990
Неопознанное воздушное судно сейчас
менее чем в 50 милях от побережья...
-----------------------
548
01:09:53,080 --> 01:09:55,860
- Да, теперь мы в безопасности.
- На какое-то время.
549
01:09:56,090 --> 01:09:59,820
Но где-то на других планетах
есть и другие парачеловеческие существа.
550
01:09:59,930 --> 01:10:04,050
И от нас требуется постоянное наблюдение,
для обеспечения безопасности мира...
551
01:10:06,680 --> 01:10:09,650
Перевод: Severnyj, Трамвай-фильм
2012-2016гг

Скриншоты












Скринлист

cd Рип дополнительно залит на ОБЛАКО cd2


Last edited by admin on 2016-03-03 01:13; edited 3 times in total
[Profile] [PM]

admin ®

Gender: Male

Longevity: 7 years 8 months

Posts: 4799

Post 03-Mar-2016 01:09 (after 13 minutes)

[Quote]

Вырезана большая половина оригинального сериала длительностью 02:47:00
Здесь еще одна кастрированная версия. но с другим монтажем и другими немного сценами с сериала (колоризованная)
http://kosmoaelita.com/viewtopic.php?t=466
Субтитры выборочно были взяты с данной версии плюс Трамвай перевел недостающие сцены
[Profile] [PM]
Display posts:    
Reply to topic

Current time is: 31-May 16:54

All times are UTC + 3



You cannot post new topics in this forum
You cannot reply to topics in this forum
You cannot edit your posts in this forum
You cannot delete your posts in this forum
You cannot vote in polls in this forum
You cannot attach files in this forum
You cannot download files in this forum