Геркулоиды / The Herculoids (Алекс Тот) [1980, США, фантастика, фентези, DVDRip] [второй сезон] (АО : Трамвай-фильм)

Reply to topic
DL-List and Torrent activity
Size:  1.08 GB   |    Registered:  3 years 3 months   |    Completed:  24 times

Seeder not seen: 19 minutes

 
   
 
 
 
Author Message

Трамвай-фильм ®

Gender: Male

Longevity: 4 years 9 months

Posts: 1454

Location: Россия

Post 21-Feb-2016 22:34

[Quote]

Геркулоиды / The Herculoids (второй сезон)
Страна: США
Жанр: фантастика, фентези
Год выпуска: 1980
Продолжительность: 00:07:59
Перевод: Авторский (одноголосый) Трамвай-фильм
Режиссер: Алекс Тот
Описание: Далекий и дикий мир планеты Квазар станет местом приключений семьи Людей (Зендора, Тары и Дорно), а так же их друзей - невероятных животных-геркулоидов.
Доп. информация: В 1981 году выходил в полнометражном блоке "Звезды Космоса", вместе со вторыми сезонами "Космических дворняг" и "Космического Призрака", а так же "Молодой силы".
Качество видео: DVDRip
Формат видео: MKV
Видео: MPEG4 Video (H264), 720x480, (4:3) 19.982fps, 1 327 Kbps
Аудио: Dolby AC3, 48000Hz, stereo, 192kbps (рус)
Аудио 2: Dolby AC3, 48000Hz, stereo, 192kbps (анг)
Работа над релизом:


[kp][/kp]
[imdb][/imdb]
Пример русского перевода:

Дополнительно

Знаете ли вы, что...

Отзывы

Рецензия

MediaInfo

Video
ID : 1
Format : AVC
Format/Info : Advanced Video Codec
Format profile : High@L4.1
Format settings, CABAC : Yes
Format settings, ReFrames : 4 frames
Codec ID : V_MPEG4/ISO/AVC
Bit rate : 1 327 Kbps
Width : 720 pixels
Height : 480 pixels
Display aspect ratio : 4:3
Frame rate mode : Variable
Standard : NTSC
Color space : YUV
Chroma subsampling : 4:2:0
Bit depth : 8 bits
Scan type : Progressive
Writing library : x264 core 130 r2273 b3065e6
Encoding settings : cabac=1 / ref=3 / deblock=1:0:0 / analyse=0x3:0x113 / me=hex / subme=7 / psy=1 / psy_rd=1.00:0.00 / mixed_ref=1 / me_range=16 / chroma_me=1 / trellis=1 / 8x8dct=1 / cqm=0 / deadzone=21,11 / fast_pskip=1 / chroma_qp_offset=-2 / threads=12 / lookahead_threads=2 / sliced_threads=0 / nr=0 / decimate=1 / interlaced=0 / bluray_compat=0 / constrained_intra=0 / bframes=3 / b_pyramid=2 / b_adapt=1 / b_bias=0 / direct=1 / weightb=1 / open_gop=0 / weightp=2 / keyint=240 / keyint_min=24 / scenecut=40 / intra_refresh=0 / rc_lookahead=40 / rc=crf / mbtree=1 / crf=20.0 / qcomp=0.60 / qpmin=0 / qpmax=69 / qpstep=4 / vbv_maxrate=62500 / vbv_bufsize=78125 / crf_max=0.0 / nal_hrd=none / ip_ratio=1.40 / aq=1:1.00
Default : Yes
Forced : No
Color primaries : BT.601 NTSC
Transfer characteristics : BT.709
Matrix coefficients : BT.601
Audio #1
ID : 2
Format : AC-3
Format/Info : Audio Coding 3
Mode extension : CM (complete main)
Format settings, Endianness : Big
Codec ID : A_AC3
Duration : 7mn 58s
Bit rate mode : Constant
Bit rate : 192 Kbps
Channel(s) : 2 channels
Channel positions : Front: L R
Sampling rate : 48.0 KHz
Bit depth : 16 bits
Compression mode : Lossy
Stream size : 11.0 MiB (11%)
Language : Russian
Default : Yes
Forced : No
Audio #2
ID : 3
Format : AC-3
Format/Info : Audio Coding 3
Mode extension : CM (complete main)
Format settings, Endianness : Big
Codec ID : A_AC3
Duration : 7mn 58s
Bit rate mode : Constant
Bit rate : 192 Kbps
Channel(s) : 2 channels
Channel positions : Front: L R
Sampling rate : 48.0 KHz
Bit depth : 16 bits
Compression mode : Lossy
Stream size : 11.0 MiB (11%)
Language : English
Default : No
Forced : No

Скриншоты




Скринлист

cd Рип дополнительно залит на ОБЛАКО cd2
Herculoids.1980.torrent
Torrent: Registered [ 2016-02-21 22:34 ]

Download .torrent

Download

12 KB

Status: checked
Completed: 24 times
Size: 1.08 GB
 


Last edited by Трамвай-фильм on 2017-11-04 18:53; edited 3 times in total
[Profile] [PM]

Susanin

Gender: Male

Longevity: 5 years 1 month

Posts: 812

Post 21-Feb-2016 23:20 (after 45 minutes)

[Quote]

Отлично!
[Profile] [PM]

Трамвай-фильм ®

Gender: Male

Longevity: 4 years 9 months

Posts: 1454

Location: Россия

Post 21-Feb-2016 23:54 (after 33 minutes)

[Quote]

13244Отлично!
Увы, первый сериал сильнее в разы.
[Profile] [PM]
Quick Reply

Name:

            
Heads necessary to send messages to enable JavaScript
Display posts:    
Reply to topic

Current time is: 27-May 07:16

All times are UTC + 3



You can post new topics in this forum
You can reply to topics in this forum
You cannot edit your posts in this forum
You cannot delete your posts in this forum
You cannot vote in polls in this forum
You cannot attach files in this forum
You can download files in this forum