Геркулоиды / The Herculoids (Алекс Тот) [1980, США, фантастика, фентези, DVDRip] [второй сезон] (АО : Трамвай-фильм)

Ответить на тему
Статистика раздачи
Размер:  1,08 GB   |    Зарегистрирован:  2 года 9 месяцев   |    Скачан:  18 раз

Сидов:

Пользователь ULR Отдано Скачано Отдача Загрузка
Anonymous 0 0- 0- 0- 0-
Anonymous 0,9 990481697945 MB 0- 0- 0-
evilbuch 0 0- 0- 0- 0-
показаны данные только за текущую сессию
 
   
 
 
 
Автор Сообщение

Трамвай-фильм ®

Пол: Мужской

Стаж: 4 года 4 месяца

Сообщений: 1350

Откуда: Россия

Создавать темы 21-Фев-2016 23:04

[Цитировать]

Геркулоиды / The Herculoids (второй сезон)
Страна: США
Жанр: фантастика, фентези
Год выпуска: 1980
Продолжительность: 00:07:59
Перевод: Авторский (одноголосый) Трамвай-фильм
Режиссер: Алекс Тот
Описание: Далекий и дикий мир планеты Квазар станет местом приключений семьи Людей (Зендора, Тары и Дорно), а так же их друзей - невероятных животных-геркулоидов.
Доп. информация: В 1981 году выходил в полнометражном блоке "Звезды Космоса", вместе со вторыми сезонами "Космических дворняг" и "Космического Призрака", а так же "Молодой силы".
Качество видео: DVDRip
Формат видео: MKV
Видео: MPEG4 Video (H264), 720x480, (4:3) 19.982fps, 1 327 Kbps
Аудио: Dolby AC3, 48000Hz, stereo, 192kbps (рус)
Аудио 2: Dolby AC3, 48000Hz, stereo, 192kbps (анг)
Работа над релизом:


[kp][/kp]
[imdb][/imdb]
Пример русского перевода:

Дополнительно

Знаете ли вы, что...

Отзывы

Рецензия

MediaInfo

Video
ID : 1
Format : AVC
Format/Info : Advanced Video Codec
Format profile : High@L4.1
Format settings, CABAC : Yes
Format settings, ReFrames : 4 frames
Codec ID : V_MPEG4/ISO/AVC
Bit rate : 1 327 Kbps
Width : 720 pixels
Height : 480 pixels
Display aspect ratio : 4:3
Frame rate mode : Variable
Standard : NTSC
Color space : YUV
Chroma subsampling : 4:2:0
Bit depth : 8 bits
Scan type : Progressive
Writing library : x264 core 130 r2273 b3065e6
Encoding settings : cabac=1 / ref=3 / deblock=1:0:0 / analyse=0x3:0x113 / me=hex / subme=7 / psy=1 / psy_rd=1.00:0.00 / mixed_ref=1 / me_range=16 / chroma_me=1 / trellis=1 / 8x8dct=1 / cqm=0 / deadzone=21,11 / fast_pskip=1 / chroma_qp_offset=-2 / threads=12 / lookahead_threads=2 / sliced_threads=0 / nr=0 / decimate=1 / interlaced=0 / bluray_compat=0 / constrained_intra=0 / bframes=3 / b_pyramid=2 / b_adapt=1 / b_bias=0 / direct=1 / weightb=1 / open_gop=0 / weightp=2 / keyint=240 / keyint_min=24 / scenecut=40 / intra_refresh=0 / rc_lookahead=40 / rc=crf / mbtree=1 / crf=20.0 / qcomp=0.60 / qpmin=0 / qpmax=69 / qpstep=4 / vbv_maxrate=62500 / vbv_bufsize=78125 / crf_max=0.0 / nal_hrd=none / ip_ratio=1.40 / aq=1:1.00
Default : Yes
Forced : No
Color primaries : BT.601 NTSC
Transfer characteristics : BT.709
Matrix coefficients : BT.601
Audio #1
ID : 2
Format : AC-3
Format/Info : Audio Coding 3
Mode extension : CM (complete main)
Format settings, Endianness : Big
Codec ID : A_AC3
Duration : 7mn 58s
Bit rate mode : Constant
Bit rate : 192 Kbps
Channel(s) : 2 channels
Channel positions : Front: L R
Sampling rate : 48.0 KHz
Bit depth : 16 bits
Compression mode : Lossy
Stream size : 11.0 MiB (11%)
Language : Russian
Default : Yes
Forced : No
Audio #2
ID : 3
Format : AC-3
Format/Info : Audio Coding 3
Mode extension : CM (complete main)
Format settings, Endianness : Big
Codec ID : A_AC3
Duration : 7mn 58s
Bit rate mode : Constant
Bit rate : 192 Kbps
Channel(s) : 2 channels
Channel positions : Front: L R
Sampling rate : 48.0 KHz
Bit depth : 16 bits
Compression mode : Lossy
Stream size : 11.0 MiB (11%)
Language : English
Default : No
Forced : No

Скриншоты




Скринлист

cd Рип дополнительно залит на ОБЛАКО cd2
Herculoids.1980.torrent
Торрент: Зарегистрирован [ 2016-02-21 23:04 ]

Скачать .torrent

Скачать

12 KB

Статус: проверено
Скачан: 18 раз
Размер: 1,08 GB
 


Последний раз редактировалось: Трамвай-фильм (2017-11-04 19:23), всего редактировалось 3 раз(а)
[Профиль] [ЛС]

Susanin

Пол: Мужской

Стаж: 4 года 8 месяцев

Сообщений: 800

Создавать темы 21-Фев-2016 23:50 (спустя 45 минут)

[Цитировать]

Отлично!
[Профиль] [ЛС]

Трамвай-фильм ®

Пол: Мужской

Стаж: 4 года 4 месяца

Сообщений: 1350

Откуда: Россия

Создавать темы 22-Фев-2016 00:24 (спустя 33 минуты)

[Цитировать]

13244Отлично!
Увы, первый сериал сильнее в разы.
[Профиль] [ЛС]
Показать сообщения:    
Ответить на тему

Текущее время: 18-Дек 17:33

Часовой пояс: UTC + 3:30



Вы не можете начинать темы
Вы не можете отвечать на сообщения
Вы не можете редактировать свои сообщения
Вы не можете удалять свои сообщения
Вы не можете голосовать в опросах
Вы не можете прикреплять файлы к сообщениям
Вы можете скачивать файлы