Когда умирает мозг / Мозг мёртв / Мозг мертвеца / Brain Dead / Paranoia (Адам Саймон / Adam Simon) [1990, США, триллер, фантастика] (ПД)

Reply to topic
 
Author Message

Susanin ®

Gender: Male

Longevity: 6 years 7 months

Posts: 852

Post 21-Feb-2016 14:00

[Quote]

Когда умирает мозг / Мозг мёртв / Мозг мертвеца / Brain Dead / Paranoia
Страна: США
Жанр: триллер, фантастика
Год выпуска: 1990
Продолжительность: 01:24:34
Перевод: Профессиональный (двухголосый)
Режиссер: Адам Саймон / Adam Simon
В ролях: Билл Пуллман /Bill Pullman/ Билл Пэкстон /Bill Paxton/ Николас Прайор /Nicholas Pryor/ Джордж Кеннеди /George Kennedy/ Бад Корт /Bud Cort/
Описание: Молодой талантливый нейрохирург Рекс Мартин соглашается на уговоры своего приятеля и проводит не совсем законную операцию на мозге пациента одной из закрытых психиатрических лечебниц. Операция эта должна либо подтвердить, либо опровергнуть те незавершенные еще теоретические разработки исследований в области психических заболеваний, которыми занимался доктор Мартин. Если бы они только знали, к чему приведет вся эта затея...
Доп. информация: Если вкратце - незаслуженно забытый шедевр. Невероятное кино. Представьте, что Линч снял кино, но позабыл рассказать об этом. Кстати, Пуллман потом снялся-таки у него, в "Шоссе в никуда". Словом - крайне рекомендую.
Качество: DVDRip
Формат: MKV
Видео: x264, 1425 кбит/с, 720x552, 23.976 к/с,
Аудио 1: Русский (AC3, 2 ch, 192 Кбит/с)
Аудио 2: Английский (AC3, 2 ch, 192 Кбит/с)
Работа над релизом:


[kp][/kp]
[imdb][/imdb]

Дополнительно

Знаете ли вы, что...

Отзывы

Рецензия

MediaInfo

Общее
Уникальный идентификатор : 178688644181181780105891026438236791625 (0x866E2E599FABF2FCB8074AC0F519E349)
Полное имя : F:\Brain Dead.1990.DVDRip.Rus.Eng.kosmoaelita.mkv
Формат : Matroska
Версия формата : Version 4 / Version 2
Размер файла : 1,07 Гбайт
Продолжительность : 1 ч. 24 м.
Общий поток : 1811 Кбит/сек
Дата кодирования : UTC 2015-04-19 22:55:45
Программа кодирования : mkvmerge v7.7.0 ('Six Voices') 64bit built on Feb 28 2015 23:39:33
Библиотека кодирования : libebml v1.3.1 + libmatroska v1.4.2
Видео
Идентификатор : 1
Формат : AVC
Формат/Информация : Advanced Video Codec
Профиль формата : High@L4.1
Параметр CABAC формата : Да
Параметр ReFrames формата : 10 кадров
Идентификатор кодека : V_MPEG4/ISO/AVC
Продолжительность : 1 ч. 24 м.
Битрейт : 1425 Кбит/сек
Ширина : 720 пикселей
Высота : 552 пикселя
Соотношение сторон : 4:3
Режим частоты кадров : Постоянный
Частота кадров : 23,976 (24000/1001) кадра/сек
Цветовое пространство : YUV
Субдискретизация насыщенности : 4:2:0
Битовая глубина : 8 бит
Тип развёртки : Прогрессивная
Бит/(Пиксели*Кадры) : 0.149
Размер потока : 862 Мбайт (79%)
Библиотека кодирования : x264 core 130 r2273 b3065e6
Настройки программы : cabac=1 / ref=10 / deblock=1:-1:-1 / analyse=0x3:0x133 / me=umh / subme=11 / psy=1 / psy_rd=1.00:0.15 / mixed_ref=1 / me_range=24 / chroma_me=1 / trellis=2 / 8x8dct=1 / cqm=0 / deadzone=21,11 / fast_pskip=1 / chroma_qp_offset=-3 / threads=12 / lookahead_threads=3 / sliced_threads=0 / nr=0 / decimate=1 / interlaced=0 / bluray_compat=0 / constrained_intra=0 / bframes=10 / b_pyramid=2 / b_adapt=2 / b_bias=0 / direct=1 / weightb=1 / open_gop=0 / weightp=2 / keyint=210 / keyint_min=21 / scenecut=40 / intra_refresh=0 / rc_lookahead=80 / rc=crf / mbtree=1 / crf=19.0 / qcomp=0.65 / qpmin=0 / qpmax=69 / qpstep=4 / ip_ratio=1.25 / aq=1:1.00
Default : Да
Forced : Нет
Аудио #1
Идентификатор : 2
Формат : AC-3
Формат/Информация : Audio Coding 3
Расширение режима : CM (complete main)
Параметр Endianness формата : Big
Идентификатор кодека : A_AC3
Продолжительность : 1 ч. 24 м.
Вид битрейта : Постоянный
Битрейт : 192 Кбит/сек
Каналы : 2 канала
Расположение каналов : Front: L R
Частота : 48,0 КГц
Частота кадров : 31,250 кадров/сек (1536 spf)
Метод сжатия : С потерями
Размер потока : 116 Мбайт (11%)
Язык : Russian
Default : Да
Forced : Нет
Аудио #2
Идентификатор : 3
Формат : AC-3
Формат/Информация : Audio Coding 3
Расширение режима : CM (complete main)
Параметр Endianness формата : Big
Идентификатор кодека : A_AC3
Продолжительность : 1 ч. 24 м.
Вид битрейта : Постоянный
Битрейт : 192 Кбит/сек
Каналы : 2 канала
Расположение каналов : Front: L R
Частота : 48,0 КГц
Частота кадров : 31,250 кадров/сек (1536 spf)
Метод сжатия : С потерями
Размер потока : 116 Мбайт (11%)
Язык : English
Default : Нет
Forced : Нет

Скриншоты

Скринлист

cd Рип дополнительно залит на ОБЛАКО cd2
[Profile] [PM]

Susanin ®

Gender: Male

Longevity: 6 years 7 months

Posts: 852

Post 17-Jul-2018 22:17 (after 2 years 4 months)

[Quote]

Ооо, дааааааааааа!!!!!!!!
http://www.blu-ray.com/movies/Brain-Dead-Blu-ray/206662/
Brain Dead Blu-ray United States
Shout Factory | 1990 | 85 min | Rated R | Sep 11, 2018 (2 Months)
[Profile] [PM]

Susanin ®

Gender: Male

Longevity: 6 years 7 months

Posts: 852

Post 09-Sep-2018 16:14 (after 1 month 22 days)

[Quote]

Вот тут рип появился!!!
http://www.myduckisdead.org/search/label/Sci-Fi?&max-results=10
Bdrip H264 Mkv - 1280x688 - 23.976fps - 3.27gb
[Profile] [PM]

Guest

Gender: Unknown

Longevity: 50 years

Post 09-Sep-2018 17:03 (after 49 minutes)

[Quote]

Здесь получше будет
http://rarbg2018.org/torrent/6jcuzdt
[Profile] [PM]

Guest

Gender: Unknown

Longevity: 50 years

Post 09-Sep-2018 19:08 (after 2 hours 5 minutes)

[Quote]

На BD картинку сильно порезали
http://screenshotcomparison.com/comparison/120122

[Profile] [PM]

Susanin ®

Gender: Male

Longevity: 6 years 7 months

Posts: 852

Post 09-Sep-2018 19:29 (after 20 minutes)

[Quote]

kosmoaelita2, зато с боков сколько!
[Profile] [PM]
Display posts:    
Reply to topic

Current time is: 27-Nov 05:07

All times are UTC + 3



You cannot post new topics in this forum
You cannot reply to topics in this forum
You cannot edit your posts in this forum
You cannot delete your posts in this forum
You cannot vote in polls in this forum
You cannot attach files in this forum
You cannot download files in this forum