Половая месть / Любопытный Доктор Хамп / La venganza del sexo / The curious Dr.Humpp (Эмилио Вийера / Emilio Vieyra) [1969, Аргентина, фантастика, ужасы, эротика] (АО : Антон Алексеев)

Reply to topic
 
Author Message

Susanin ®

Gender: Male

Longevity: 6 years 1 month

Posts: 846

Post 20-Feb-2016 21:17

[Quote]

Половая месть / Любопытный Доктор Хамп / La venganza del sexo / The curious Dr.Humpp
Страна: Аргентина
Жанр: фантастика, ужасы, эротика
Год выпуска: 1969
Продолжительность: 01:27:13
Перевод: Авторский (одноголосый) Антон Алексеев
Режиссер: Эмилио Вийера / Emilio Vieyra
В ролях: Риккардо Баулео, Глория Прат, Альдо Барберо, Сюзана Белтран
Описание: Доктор Хамп с помощью своего верного монстра похищает парочки, занимающиеся любовью, различных лесбиянок, нимфоманок и прочую подобную публику. В своём особняке он проводит над ними опыты, накачивая их какими-то препаратами, увеличивающими влечение и заставляя бесконечно заниматься сексом. Руководит им говорящий мозг профессора, который уже когда-то проводил подобные опыты в Италии, а их целью является вечная молодость. Всё бы ничего, но массовыми пропажами любовников заинтересовалась полиция, а Доктор Хамп имел неосторожность допустить ряд ошибок и подцепил на хвост полицейского детектива…
Доп. информация: Всё смешалось в этом фильме - безумный учёный, секс, полиция, убийства, чудовище, зазомбированные люди, говорящий мозг в банке, лёгкий джаз и авангардные шумы... За это мы и любим такую старую фантастику!
Спасибо Админу за помощь в улучшении звуковой дорожки релиза.
Качество: DVDRip
Формат: MKV
Видео: x264, 1541 кбит/с, 720x544, 23.976 к/с, crf=19
Аудио 1: Русский (AC3, 2 ch, 192 Кбит/с)
Аудио 2: Английский (AC3, 2 ch, 192 Кбит/с)
Работа над релизом:




Пример русского перевода
[youtube][/youtube]

Дополнительно

Also Known As (AKA)
Greece (DVD title) O diestrammenos Dr. Humpp
USA The Curious Dr. Humpp
World-wide (English title) The Curious Case of Dr. Humpp

Знаете ли вы, что...

Отзывы

Рецензия

Имя аргентинского режиссёра Эмилио Вийеры хорошо знакомо западным любителям эксплуатационного кино, благодаря изданиям Something Weird Video и Mondo macabrо. Пожалуй, самым известным его фильмом является «Кровь девственниц» (Sangre de virgenes) 1967 года. В том же году он снимает ещё два фильма – «Кровавое удовольствие» (Placer sangriento) и «Любопытный Доктор Хамп» (La venganza del sexo), о котором я сейчас расскажу, и который пролежал два года на полке, чтобы в 1969 году увидеть свет в кинотеатрах Аргентины и США.Сюжет этого творения мог бы получить первое место в номинации «Идиотизм всех времен и народов». Некий Доктор Хамп с помощью своего верного монстра похищает парочки, занимающиеся любовью, различных лесбиянок, нимфоманок и прочую подобную публику. В своём особняке он проводит над ними опыты, накачивая их какими-то препаратами, увеличивающими влечение и заставляя бесконечно заниматься сексом. Руководит им говорящий мозг профессора, который уже когда-то проводил подобные опыты в Италии, а их целью является вечная молодость, которую Хамп и мозг каким-то образом получают от занимающихся любовью людей. Всё бы ничего, но массовыми пропажами любовников заинтересовалась полиция, а Доктор Хамп имел неосторожность допустить ряд ошибок и подцепил на хвост полицейского детектива…Забавный и маразматичный сюжет, не так ли? Собственно, он служит лишь оправданием для показа многочисленных эротических сцен и просто голых барышень разной степени красивости и некрасивости. Эмилио Вийера попытался скрестить традиционный фантастический фильм о безумном ученом, которые активно снимали в 1950-1960-гг, а также эротику, которая в те времена ещё была в новинку, тем более в чёрно-белом кино. Получилось у него действительно шизанутое творение, которое можно посмотреть лишь ради веселья и интереса, но ни в коем случае не стоит воспринимать на полном серьезе.Первые минут пятнадцать отданы показу многочисленных эротических сцен и монстра, который похищает девушек и юношей. Сразу становится ясно, что авторов интересовал не этот парень, а голенькие барышни, ибо чудовище нам показывают мельком, большая часть сцен похищений остается за кадром, но зато обнаженка демонстрируется по полной программе. Правда сцены эти сняты весьма несуразно и вызывают зевоту и желание поскорее их промотать, ибо временами авторы злоупотребляют зумами до такой степени, что едва понимаешь, что происходит на экране. Сами эротические сцены сняты очень несуразно, а девушки далеко не всегда красивы, что, однако, не мешает авторам уделять сценам с их участием ну очень много времени.Что же касается фантастической составляющей, то могу сказать, что такое кино могло появиться только в те времена и ни в коем случае уже не появится в наше скучное с точки зрения кино время. Сама фабула уже вызывает смех, а ведь есть ещё не менее смешной говорящий мозг, монстры-лунатики, подчиняющиеся Доктору Хампу и представляющие собой статистов в масках, и полицейский, который попадает в плен к Доктору и нарушает его планы. Никаких жестоких убийств или опытов здесь не будет. Нас ждут только разглагольствования Доктора Хампа в его лаборатории, выяснение отношений с подружкой, ну и многочисленные эротические сцены с преимущественно одними и теми же персонажами. Как вы уже могли догадаться, актерская игра вообще никакая. От девушек требовалось только раздеваться, а главный герой-полицейский временами смотрится нелепо и делает весьма странные гримасы пред камерой, напоминая нашего нынешнего президента Медведева. «Любопытный Доктор Хамп» - яркий пример того маразма, до которого доходили режиссёры эксплутационного кино, чтобы привлечь и удивить зрителей. Но всё же это лучше, чем тупая демонстрация достижений компьютерной техники, которую мы вынуждены наблюдать в современном кино. Поэтому я не буду называть творение Вийеры мусором, ибо оно здорово меня повеселило и этому аргентинцу надо ставить «зачет» только за смелость показать на экране такое. Смотреть или нет, решайте сами, но не относитесь к этому фильму серьезно

Лог кодирования

MediaInfo

General
Unique ID : 202815401541385435169653603398397519123 (0x9894D3540B0F7A3FAC232A20655CE513)
Complete name : F:\La venganza del sexo.The Curious Dr. Humpp.1969.mkv.!ut
Format : Matroska
Format version : Version 4 / Version 2
File size : 1.20 GiB
Duration : 1h 27mn
Overall bit rate : 1 964 Kbps
Encoded date : UTC 2016-02-14 15:45:01
Writing application : mkvmerge v8.8.0 ('Wind at my back') 64bit
Writing library : libebml v1.3.3 + libmatroska v1.4.4
Video
ID : 1
Format : AVC
Format/Info : Advanced Video Codec
Format profile : High@L4.1
Format settings, CABAC : Yes
Format settings, ReFrames : 10 frames
Codec ID : V_MPEG4/ISO/AVC
Duration : 1h 27mn
Bit rate : 1 541 Kbps
Width : 720 pixels
Height : 544 pixels
Display aspect ratio : 4:3
Frame rate mode : Constant
Frame rate : 23.976 fps
Color space : YUV
Chroma subsampling : 4:2:0
Bit depth : 8 bits
Scan type : Progressive
Bits/(Pixel*Frame) : 0.164
Stream size : 961 MiB (78%)
Writing library : x264 core 130 r2273 b3065e6
Encoding settings : cabac=1 / ref=10 / deblock=1:-1:-1 / analyse=0x3:0x133 / me=umh / subme=11 / psy=1 / psy_rd=1.00:0.15 / mixed_ref=1 / me_range=24 / chroma_me=1 / trellis=2 / 8x8dct=1 / cqm=0 / deadzone=21,11 / fast_pskip=1 / chroma_qp_offset=-3 / threads=12 / lookahead_threads=3 / sliced_threads=0 / nr=0 / decimate=1 / interlaced=0 / bluray_compat=0 / constrained_intra=0 / bframes=10 / b_pyramid=2 / b_adapt=2 / b_bias=0 / direct=1 / weightb=1 / open_gop=0 / weightp=2 / keyint=210 / keyint_min=21 / scenecut=40 / intra_refresh=0 / rc_lookahead=80 / rc=crf / mbtree=1 / crf=19.0 / qcomp=0.65 / qpmin=0 / qpmax=69 / qpstep=4 / ip_ratio=1.25 / aq=1:1.00
Language : English
Default : Yes
Forced : No
Audio #1
ID : 2
Format : AC-3
Format/Info : Audio Coding 3
Mode extension : CM (complete main)
Format settings, Endianness : Big
Codec ID : A_AC3
Duration : 1h 27mn
Bit rate mode : Constant
Bit rate : 192 Kbps
Channel(s) : 2 channels
Channel positions : Front: L R
Sampling rate : 48.0 KHz
Bit depth : 16 bits
Compression mode : Lossy
Stream size : 120 MiB (10%)
Title : АО Алексеев
Language : Russian
Default : Yes
Forced : No
Audio #2
ID : 3
Format : AC-3
Format/Info : Audio Coding 3
Mode extension : CM (complete main)
Format settings, Endianness : Big
Codec ID : A_AC3
Duration : 1h 27mn
Bit rate mode : Constant
Bit rate : 192 Kbps
Channel(s) : 1 channel
Channel positions : Front: C
Sampling rate : 48.0 KHz
Bit depth : 16 bits
Compression mode : Lossy
Stream size : 120 MiB (10%)
Language : English
Default : No
Forced : No

Скриншоты



















Скринлист

cd Рип дополнительно залит на ОБЛАКО cd2
[Profile] [PM]

Susanin ®

Gender: Male

Longevity: 6 years 1 month

Posts: 846

Post 25-Feb-2016 13:32 (after 4 days)

[Quote]

Вот здесь: http://rutracker.org/forum/viewtopic.php?t=4757670 есть немного про режиссёра Эмилио Вийера и его фильмы (фильм "Аргентинские ужасы и эротика"). Там вообще вся подборка интересная.
[Profile] [PM]
Display posts:    
Reply to topic

Current time is: 07-Jun 08:19

All times are UTC + 3



You cannot post new topics in this forum
You cannot reply to topics in this forum
You cannot edit your posts in this forum
You cannot delete your posts in this forum
You cannot vote in polls in this forum
You cannot attach files in this forum
You cannot download files in this forum