Новые Варвары / 2019: Новые варвары / The New Barbarians / I nuovi barbari / 1990 The Bronx Warriors / 1990: The Bronx Warriors (Enzo G. Castellari / Энцо Кастеллари) [1982, США, Италия, Фантастика, боевик, постапокалипсис, BDRip-720p] (ПМ : 5 Канал СПб)

Reply to topic
DL-List and Torrent activity
Size:  3.64 GB   |    Registered:  4 years   |    Completed:  4 times

Seeder not seen: 3 years 11 months

 
   
 
 
 
Author Message

AlexNT60 ®

Gender: Male

Longevity: 7 years

Posts: 120

Location: СПб

Post 15-Feb-2016 23:04

[Quote]

Новые Варвары / 2019: Новые варвары / The New Barbarians / I nuovi barbari / 1990 The Bronx Warriors / 1990: The Bronx Warriors
Страна: США, Италия
Жанр: Фантастика, боевик, постапокалипсис
Год выпуска: 1982
Продолжительность: 01:30:55
Перевод: Профессиональный (многоголосый) 5 Канал
Режиссер: Enzo G. Castellari / Энцо Кастеллари
В ролях: Виктория Пэрис
Сабрина Доун
Тиана
Наташа Скайлер
Шила Келли
Нина Хартли
Шарон Кэйн
Рэнди Уэст
Джои Сильвера
Рэнди Спирс
Описание: 2019 год. Земля превратилась в пустыню, после ядерной катастрофы. Банда байкеров-мародеров, во главе с "Единственным" (Джордж Истман), рыщет по мертвым землям, и истребляет последних кто остался в живых. Герой-одиночка Скорпион (Джанкарло Прете) пытается защитить группу людей от мародеров но попадает в ловушку. И тогда выручать его приходит опытный воин Надир (Фред Уильямсон).
Качество видео: BDRip-720p
Формат видео: MKV
Видео: x264, 5343 кбит/с, 1280x544, 23.976 к/с
Аудио: Русский MVO (5 канал) (AC3, 2 ch, 192 Кбит/с)
Аудио 2: Английский (AC3, 2 ch, 192 Кбит/с)
Работа над релизом:




Дополнительно

слоган «Dealers in death... exterminators of the 21st century...»
Also Known As (AKA)
2019 - Os Bárbaros do Futuro Brazil (video title)
2019, i nuovi barbari Italy (alternative title)
Die Schlacht der Centurions West Germany (trailer title)
Etter atomkrigen Norway (video box title)
Guerreiros do Futuro Brazil (video title)
Helvete år 2019 Norway (imdb display title)
Les nouveaux barbares France
Los nuevos bárbaros Spain
Metropolis 2000 West Germany
Novi barbari Slovenia (imdb display title)
Oi mahites tis epomenis meras Greece (transliterated ISO-LATIN-1 title)
Os Implacáveis Exterminadores Portugal (imdb display title)
The New Barbarians (undefined)
The New Barbarians: Warriors of the Wasteland USA (DVD box title)
Uudet barbaarit Finland
Warriors of the Wasteland USA

Рецензия

80 — е. Италию захлестнула волна пост — апокалипсических фильмов, на фоне всего остального выплыл второй фильм Энцо Г. Кастеллари в этом жанре — «Новые варвары». В итальянском кинематографе Кастеллари личность никакая, его работы отличались исключительно убого поставленными экшн — сценами (исключение составляют лишь «Войны Бронкса» и «Побег из Бронкса») и «Новые варвары» яркое тому подтверждение.
Начав свой фильм с панорамы города, который то ли из детского конструктора построен, то ли из папье-маше, мягко говоря, удивил своим халтурным отношением к фильму. Все съемки проходили на зелёных лугах, полях и в песчаных оврагах. Ничего пост — апокалипсического, ни трущоб, ни руин мегаполисов, только иногда встречающиеся недействующие заводы. После игрушечного города ещё чуднее: на группу людей нападает банда мародёров — варвары будущего.
Съехав с горы на автомобилях, подобно которым играют дети и оборудованными чёрт знает чем, от огнемёта с копьём, до ракетной установки и лопастей на шесте (предназначенных, видимо, только для отрубания голов, что ярко демонстрируется вначале). И вот так весь фильм: «хорошие» отстреливаются от «плохих» из винтовок М — 16 (не пулями точно) со звуком пиу-пиу. Обидно, что в этом очень неудачном пост — апокалипсическом боевике снялись два по — настоящему хороших актёра: Джордж Истмен в роли главаря банды варваров и Фред Вильямсон, который лихо лупит из лука стрелами (впоследствии взрывающимися) в негодяев.
Итог: для ознакомления с таким замечательным жанром как пост — апокалипсическая фантастика этот фильм не подходит вообще, иначе мнения насчёт этого жанра будет не самое лучшее. В визуальном плане — ужасно, грим и костюмы детский сад. «2019 после падения Нью — Йорка» (2019 dopo la caduta di New — York) — начните с этого, не пожалеете.

MediaInfo

General
Unique ID : 192351672101189104072291661971930429504 (0x90B595A2CAD4BA1D96E1B50391873840)
Complete name : F:\Torrent\The.New.Barbarians.1983.720p.BDRip.x264.mkv
Format : Matroska
Format version : Version 4 / Version 2
File size : 3.64 GiB
Duration : 1h 30mn
Overall bit rate : 5 727 Kbps
Movie name : The New Barbarians (1983)
Encoded date : UTC 2016-01-22 07:12:33
Writing application : mkvmerge v8.8.0 ('Wind at my back') 64bit
Writing library : libebml v1.3.3 + libmatroska v1.4.4
DURATION : 01:30:54.752000000
NUMBER_OF_FRAMES : 170461
NUMBER_OF_BYTES : 130914048
_STATISTICS_WRITING_APP : mkvmerge v8.8.0 ('Wind at my back') 64bit
_STATISTICS_WRITING_DATE_UTC : 2016-01-22 07:12:33
_STATISTICS_TAGS : BPS DURATION NUMBER_OF_FRAMES NUMBER_OF_BYTES
Video
ID : 1
Format : AVC
Format/Info : Advanced Video Codec
Format profile : High@L4.1
Format settings, CABAC : Yes
Format settings, ReFrames : 5 frames
Codec ID : V_MPEG4/ISO/AVC
Duration : 1h 30mn
Bit rate : 5 343 Kbps
Width : 1 280 pixels
Height : 544 pixels
Display aspect ratio : 2.35:1
Frame rate mode : Constant
Frame rate : 23.976 fps
Color space : YUV
Chroma subsampling : 4:2:0
Bit depth : 8 bits
Scan type : Progressive
Bits/(Pixel*Frame) : 0.320
Stream size : 3.32 GiB (91%)
Writing library : x264 core 146 r2538 121396c
Encoding settings : cabac=1 / ref=5 / deblock=1:0:0 / analyse=0x3:0x133 / me=umh / subme=8 / psy=1 / psy_rd=1.00:0.00 / mixed_ref=1 / me_range=16 / chroma_me=1 / trellis=1 / 8x8dct=1 / cqm=0 / deadzone=21,11 / fast_pskip=0 / chroma_qp_offset=-2 / threads=12 / lookahead_threads=2 / sliced_threads=0 / nr=0 / decimate=1 / interlaced=0 / bluray_compat=0 / constrained_intra=0 / bframes=3 / b_pyramid=2 / b_adapt=1 / b_bias=0 / direct=1 / weightb=1 / open_gop=0 / weightp=2 / keyint=250 / keyint_min=23 / scenecut=40 / intra_refresh=0 / rc_lookahead=40 / rc=2pass / mbtree=1 / bitrate=5343 / ratetol=1.0 / qcomp=0.60 / qpmin=0 / qpmax=69 / qpstep=4 / cplxblur=20.0 / qblur=0.5 / ip_ratio=1.40 / aq=1:1.00
Default : Yes
Forced : No
Audio #1
ID : 2
Format : AC-3
Format/Info : Audio Coding 3
Mode extension : CM (complete main)
Format settings, Endianness : Big
Codec ID : A_AC3
Duration : 1h 30mn
Bit rate mode : Constant
Bit rate : 192 Kbps
Channel(s) : 2 channels
Channel positions : Front: L R
Sampling rate : 48.0 KHz
Bit depth : 16 bits
Compression mode : Lossy
Stream size : 125 MiB (3%)
Title : MVO
Language : Russian
Default : Yes
Forced : No
Audio #2
ID : 3
Format : AC-3
Format/Info : Audio Coding 3
Mode extension : CM (complete main)
Format settings, Endianness : Big
Codec ID : A_AC3
Duration : 1h 30mn
Bit rate mode : Constant
Bit rate : 192 Kbps
Channel(s) : 2 channels
Channel positions : Front: L R
Sampling rate : 48.0 KHz
Bit depth : 16 bits
Compression mode : Lossy
Stream size : 125 MiB (3%)
Language : English
Default : No
Forced : No

Скриншот c названием фильма

Скриншоты















Скринлист

cd Рип дополнительно залит на ОБЛАКО cd2
The.New.Barbarians.1983.720p.BDRip.x264.mkv.torrent
Torrent: Registered [ 2016-02-15 23:04 ]

Download .torrent

Download

18 KB

Status: checked
Completed: 4 times
Size: 3.64 GB
 
[Profile] [PM]
Display posts:    
Reply to topic

Current time is: 27-Feb 11:47

All times are UTC + 3



You cannot post new topics in this forum
You cannot reply to topics in this forum
You cannot edit your posts in this forum
You cannot delete your posts in this forum
You cannot vote in polls in this forum
You cannot attach files in this forum
You can download files in this forum