Воины Бронкса 2 / Побег из Бронкса / Escape from the Bronx / Escape from Bronx / Fuga dal Bronx (Энцо Дж. Кастеллари / Enzo G. Castellari) [1983, Италия, США, Фантастика, боевик, постапокалипсис, BDRip-720p] (АО : Н.Дружинина)

Reply to topic
DL-List and Torrent activity
Size:  3.67 GB   |    Registered:  4 years 8 months   |    Completed:  3 times

Seeder not seen: 4 years 1 month

 
   
 
 
 
Author Message

AlexNT60 ®

Gender: Male

Longevity: 7 years 8 months

Posts: 137

Location: СПб

Post 12-Feb-2016 17:33

[Quote]

Воины Бронкса 2 / Побег из Бронкса / Escape from the Bronx / Fuga dal Bronx
Страна: Италия, США
Жанр: Фантастика, боевик, постапокалипсис
Год выпуска: 1983
Продолжительность: 01:29:42
Перевод: Авторский (одноголосый) Н.Дружинина
Режиссер: Энцо Дж. Кастеллари / Enzo G. Castellari
В ролях: Марк Грегори
Генри Сильва
Валерия Д’Обичи
Джанкарло Прете
Паоло Малко
Эннио Джиролами
Антонио Сабато
Алессандро Прете
Массимо Ванни
Андреа Коппола
Описание: Постъядерный Нью-Йорк, 1990 год. Порочная корпорация пытается уничтожить последних оставшихся жителей Бронкса чтобы построить свой собственный высотный комплекс. И только длинноволосый воин, Трэш, становится единственным препятствием на их пути…
Доп. информация: "Голосовые заплатки" от Андрея Лагуты
Качество видео: BDRip-720p
Формат видео: MKV
Видео: x264, 5464 кбит/с, 1280x544, 23.976 к/с
Аудио: Русский AVO (Н.Дружинина+А.Лагута) (AC3, 2 ch, 192 Кбит/с)
Аудио 2: Английский (AC3, 2 ch, 192 Кбит/с)
Работа над релизом:


[kp][/kp]
[imdb][/imdb]
Пример русской озвучки
[youtube][/youtube]

Дополнительно

Знаете ли вы, что...

Отзывы

Рецензия

MediaInfo

General
Unique ID : 250643852914724554312185460022698791925 (0xBC90400B2C9CD3EDB0D1D4EAE11F53F5)
Complete name : C:\BD\Escape from the Bronx (1983)\Escape.from.the.Bronx.1983.720p.BluRay.x264.mkv
Format : Matroska
Format version : Version 4 / Version 2
File size : 3.67 GiB
Duration : 1h 29mn
Overall bit rate : 5 855 Kbps
Movie name : Escape from the Bronx (1983)
Encoded date : UTC 2016-02-12 13:48:41
Writing application : mkvmerge v8.8.0 ('Wind at my back') 64bit
Writing library : libebml v1.3.3 + libmatroska v1.4.4
Attachements : Cover.png
DURATION : 01:29:41.696000000
NUMBER_OF_FRAMES : 168178
NUMBER_OF_BYTES : 129160704
_STATISTICS_WRITING_APP : mkvmerge v8.8.0 ('Wind at my back') 64bit
_STATISTICS_WRITING_DATE_UTC : 2016-02-12 13:48:41
_STATISTICS_TAGS : BPS DURATION NUMBER_OF_FRAMES NUMBER_OF_BYTES
Video
ID : 1
Format : AVC
Format/Info : Advanced Video Codec
Format profile : High@L4.1
Format settings, CABAC : Yes
Format settings, ReFrames : 5 frames
Codec ID : V_MPEG4/ISO/AVC
Duration : 1h 29mn
Bit rate : 5 464 Kbps
Width : 1 280 pixels
Height : 544 pixels
Display aspect ratio : 2.35:1
Frame rate mode : Constant
Frame rate : 23.976 fps
Color space : YUV
Chroma subsampling : 4:2:0
Bit depth : 8 bits
Scan type : Progressive
Bits/(Pixel*Frame) : 0.327
Stream size : 3.35 GiB (91%)
Writing library : x264 core 146 r2538 121396c
Encoding settings : cabac=1 / ref=5 / deblock=1:0:0 / analyse=0x3:0x133 / me=umh / subme=8 / psy=1 / psy_rd=1.00:0.00 / mixed_ref=1 / me_range=16 / chroma_me=1 / trellis=1 / 8x8dct=1 / cqm=0 / deadzone=21,11 / fast_pskip=0 / chroma_qp_offset=-2 / threads=12 / lookahead_threads=2 / sliced_threads=0 / nr=0 / decimate=1 / interlaced=0 / bluray_compat=0 / constrained_intra=0 / bframes=3 / b_pyramid=2 / b_adapt=1 / b_bias=0 / direct=1 / weightb=1 / open_gop=0 / weightp=2 / keyint=250 / keyint_min=23 / scenecut=40 / intra_refresh=0 / rc_lookahead=40 / rc=2pass / mbtree=1 / bitrate=5464 / ratetol=1.0 / qcomp=0.60 / qpmin=0 / qpmax=69 / qpstep=4 / cplxblur=20.0 / qblur=0.5 / ip_ratio=1.40 / aq=1:1.00
Default : Yes
Forced : No
Audio #1
ID : 2
Format : AC-3
Format/Info : Audio Coding 3
Mode extension : CM (complete main)
Format settings, Endianness : Big
Codec ID : A_AC3
Duration : 1h 29mn
Bit rate mode : Constant
Bit rate : 192 Kbps
Channel(s) : 2 channels
Channel positions : Front: L R
Sampling rate : 48.0 KHz
Bit depth : 16 bits
Compression mode : Lossy
Stream size : 123 MiB (3%)
Title : AVO (Н.Дружинина)
Language : Russian
Default : Yes
Forced : No
Audio #2
ID : 3
Format : AC-3
Format/Info : Audio Coding 3
Mode extension : CM (complete main)
Format settings, Endianness : Big
Codec ID : A_AC3
Duration : 1h 29mn
Bit rate mode : Constant
Bit rate : 192 Kbps
Channel(s) : 2 channels
Channel positions : Front: L R
Sampling rate : 48.0 KHz
Bit depth : 16 bits
Compression mode : Lossy
Stream size : 123 MiB (3%)
Language : English
Default : No
Forced : No

Скриншот c названием фильма

Скриншоты




Скринлист

cd Рип дополнительно залит на ОБЛАКО cd2
Escape.from.the.Bronx.1983.720p.BluRay.x264.mkv.torrent
Torrent: Registered [ 2016-02-12 17:33 ]

Download .torrent

Download

19 KB

Status: checked
Completed: 3 times
Size: 3.67 GB
 
[Profile] [PM]

Guest

Gender: Unknown

Post 13-Feb-2016 17:28 (after 23 hours)

[Quote]

Благодарствую, Алексей!
 
Display posts:    
Reply to topic

Current time is: 25-Oct 18:50

All times are UTC + 3



You cannot post new topics in this forum
You cannot reply to topics in this forum
You cannot edit your posts in this forum
You cannot delete your posts in this forum
You cannot vote in polls in this forum
You cannot attach files in this forum
You can download files in this forum