Свихнувшийся мир / Обезумевший мир / World Gone Wild (Ли Катцин / Lee H. Katzin) [1987, США, Фантастика, боевик, постапокалипсис, HDTVRip-720p] (ПД : НТВ+) (АО : Ю.Живов) (АО)

Reply to topic
DL-List and Torrent activity
Size:  4.29 GB   |    Registered:  4 years 7 months   |    Completed:  5 times

Seeder not seen: 4 years 6 months

 
   
 
 
 
Author Message

AlexNT60 ®

Gender: Male

Longevity: 7 years 7 months

Posts: 137

Location: СПб

Post 08-Feb-2016 13:51

[Quote]

Свихнувшийся мир / Обезумевший мир / World Gone Wild
Страна: США
Жанр: Фантастика, боевик, постапокалипсис
Год выпуска: 1987
Продолжительность: 01:30:34
Перевод: Профессиональный (двухголосый) НТВ+
Перевод 2: Авторский (одноголосый) Ю.Живов
Перевод 3: Авторский (одноголосый)
Режиссер: Ли Катцин / Lee H. Katzin
В ролях: Брюс Дерн
Майкл Паре
Катрин Мэри Стюарт
Адам Ант
Энтони Джеймс
Рик Поделл
Джулиус Кэрри
Алан Аутри
Mindy McEnnan
Брайан Дж. Томпсон
Описание: В растерзанном ядерной войной вэйстлэнде 2087-го года, бывшим когда-то Соединенными Штатами Америки, вода по причине своей скудности ценится превыше всего. Изолированное поселение Лост Велс (Lost Wells) пережило холокост за счет того, что его обитатели тщательно оберегают источник чистой воды. Однако тихим земледельческим будням поселенцев приходит конец с появлением в деревне некоего зловещего культа — группы зомбированных юношей, ведомых психопатом Дереком, убивающих и зверствующих по его приказу.
Жители селения не способны противостоять бандитам, и только бывший наемник Итан, проживающий в деревне, оказывает сопротиление. Дерек со своей зондер-командой покидает Лост Велс, но обещает скоро вернуться, чтобы довершить начатое. Единственной надеждой остается старый друг Итана Джордж, обитающий где-то в районе развалин города, лежащего вдалеке от деревни. Но даже он и его братья по оружию могут не выжить в этом свихнувшемся мире.
Качество видео: HDTVRip-720p
Формат видео: MKV
Видео: x264, 6000 кбит/с, 1280x720, 25 к/с
Аудио 1: Русский DVO (HTB+) (AC3, 2 ch, 192 Кбит/с)
Аудио 2: Русский AVO (Ю.Живов) (AC3, 2 ch, 192 Кбит/с)
Аудио 3: Русский AVO (AC3, 2 ch, 192 Кбит/с)
Аудио 4: Английский (AC3, 2 ch, 192 Кбит/с)
Работа над релизом:




[youtube][/youtube]

Дополнительно

Знаете ли вы, что...

Отзывы

Рецензия

MediaInfo

General
Unique ID : 248817154682759078272888995945280064875 (0xBB3070DE0A7A17BD96CF6264BB2E4D6B)
Complete name : F:\Torrent\World.Gone.Wild.1987.720p.HDTVRip.x264.mkv
Format : Matroska
Format version : Version 4 / Version 2
File size : 4.29 GiB
Duration : 1h 30mn
Overall bit rate : 6 778 Kbps
Movie name : World Gone Wild (1987)
Encoded date : UTC 2016-02-04 17:05:58
Writing application : mkvmerge v8.8.0 ('Wind at my back') 64bit
Writing library : libebml v1.3.3 + libmatroska v1.4.4
DURATION : 01:30:34.080000000
NUMBER_OF_FRAMES : 169815
NUMBER_OF_BYTES : 130417920
_STATISTICS_WRITING_APP : mkvmerge v8.8.0 ('Wind at my back') 64bit
_STATISTICS_WRITING_DATE_UTC : 2016-02-04 17:05:58
_STATISTICS_TAGS : BPS DURATION NUMBER_OF_FRAMES NUMBER_OF_BYTES
Video
ID : 1
Format : AVC
Format/Info : Advanced Video Codec
Format profile : High@L4.0
Format settings, CABAC : Yes
Format settings, ReFrames : 8 frames
Codec ID : V_MPEG4/ISO/AVC
Duration : 1h 30mn
Bit rate : 6 000 Kbps
Width : 1 280 pixels
Height : 720 pixels
Display aspect ratio : 16:9
Frame rate mode : Constant
Frame rate : 25.000 fps
Color space : YUV
Chroma subsampling : 4:2:0
Bit depth : 8 bits
Scan type : Progressive
Bits/(Pixel*Frame) : 0.260
Stream size : 3.72 GiB (87%)
Writing library : x264 core 146 r2538M 121396c
Encoding settings : cabac=1 / ref=8 / deblock=1:0:0 / analyse=0x3:0x133 / me=umh / subme=9 / psy=1 / psy_rd=1.00:0.00 / mixed_ref=1 / me_range=16 / chroma_me=1 / trellis=2 / 8x8dct=1 / cqm=0 / deadzone=21,11 / fast_pskip=1 / chroma_qp_offset=-2 / threads=9 / lookahead_threads=1 / sliced_threads=0 / nr=0 / decimate=1 / interlaced=0 / bluray_compat=0 / constrained_intra=0 / bframes=3 / b_pyramid=2 / b_adapt=2 / b_bias=0 / direct=3 / weightb=1 / open_gop=0 / weightp=2 / keyint=250 / keyint_min=25 / scenecut=40 / intra_refresh=0 / rc_lookahead=60 / rc=abr / mbtree=1 / bitrate=6000 / ratetol=1.0 / qcomp=0.60 / qpmin=0 / qpmax=69 / qpstep=4 / ip_ratio=1.40 / aq=1:1.00
Default : Yes
Forced : No
Audio #1
ID : 2
Format : AC-3
Format/Info : Audio Coding 3
Mode extension : CM (complete main)
Format settings, Endianness : Big
Codec ID : A_AC3
Duration : 1h 30mn
Bit rate mode : Constant
Bit rate : 192 Kbps
Channel(s) : 2 channels
Channel positions : Front: L R
Sampling rate : 48.0 KHz
Bit depth : 16 bits
Compression mode : Lossy
Stream size : 124 MiB (3%)
Title : MVO (НТВ+)
Language : Russian
Default : Yes
Forced : No
Audio #2
ID : 3
Format : AC-3
Format/Info : Audio Coding 3
Mode extension : CM (complete main)
Format settings, Endianness : Big
Codec ID : A_AC3
Duration : 1h 30mn
Bit rate mode : Constant
Bit rate : 192 Kbps
Channel(s) : 2 channels
Channel positions : Front: L R
Sampling rate : 48.0 KHz
Bit depth : 16 bits
Compression mode : Lossy
Stream size : 124 MiB (3%)
Title : AVO (Ю.Живов)
Language : Russian
Default : No
Forced : No
Audio #3
ID : 4
Format : AC-3
Format/Info : Audio Coding 3
Mode extension : CM (complete main)
Format settings, Endianness : Big
Codec ID : A_AC3
Duration : 1h 30mn
Bit rate mode : Constant
Bit rate : 192 Kbps
Channel(s) : 2 channels
Channel positions : Front: L R
Sampling rate : 48.0 KHz
Bit depth : 16 bits
Compression mode : Lossy
Stream size : 124 MiB (3%)
Title : AVO
Language : Russian
Default : No
Forced : No
Audio #4
ID : 5
Format : AC-3
Format/Info : Audio Coding 3
Mode extension : CM (complete main)
Format settings, Endianness : Big
Codec ID : A_AC3
Duration : 1h 30mn
Bit rate mode : Constant
Bit rate : 192 Kbps
Channel(s) : 2 channels
Channel positions : Front: L R
Sampling rate : 48.0 KHz
Bit depth : 16 bits
Compression mode : Lossy
Stream size : 124 MiB (3%)
Language : English
Default : No
Forced : No

Скриншот c названием фильма

Скриншоты




Скринлист

cd Рип дополнительно залит на ОБЛАКО cd2
World.Gone.Wild.1987.720p.HDTVRip.x264.mkv.torrent
Torrent: Registered [ 2016-02-08 13:51 ]

Download .torrent

Download

22 KB

Status: checked
Completed: 5 times
Size: 4.29 GB
 
[Profile] [PM]
Display posts:    
Reply to topic

Current time is: 29-Sep 03:21

All times are UTC + 3



You cannot post new topics in this forum
You cannot reply to topics in this forum
You cannot edit your posts in this forum
You cannot delete your posts in this forum
You cannot vote in polls in this forum
You cannot attach files in this forum
You can download files in this forum